[NSBC] Good Doctor E10 END [WEBDL] [720p]

Category:
Date:
2018-09-14 11:47 UTC
Submitter:
Seeders:
4
Information:
TlNCQy50bw==
Leechers:
0
File size:
872.2 MiB
Completed:
534
Info hash:
ec504fbc0a8f4c7abffd56a5af1d56b51cd584ff
![alt text](http://img.topddl.net/images/7a73e1a46050c51fdf83bee5c618baa3.jpg "") ``` General Format : MPEG-4 Format profile : Base Media Codec ID : isom File size : 872 MiB Duration : 56mn 54s Overall bit rate mode : Variable Overall bit rate : 2 143 Kbps Writing application : Lavf57.83.100 Video ID : 1 Format : AVC Format/Info : Advanced Video Codec Format profile : High@L4.1 Format settings, CABAC : Yes Format settings, ReFrames : 2 frames Codec ID : avc1 Codec ID/Info : Advanced Video Coding Duration : 56mn 54s Bit rate mode : Variable Bit rate : 2 010 Kbps Maximum bit rate : 6 000 Kbps Width : 1 280 pixels Height : 720 pixels Display aspect ratio : 16:9 Frame rate mode : Constant Frame rate : 29.970 fps Color space : YUV Chroma subsampling : 4:2:0 Bit depth : 8 bits Scan type : Progressive Bits/(Pixel*Frame) : 0.073 Stream size : 818 MiB (94%) Audio ID : 2 Format : AAC Format/Info : Advanced Audio Codec Format profile : LC Codec ID : 40 Duration : 56mn 54s Bit rate mode : Constant Bit rate : 125 Kbps Channel(s) : 2 channels Channel positions : Front: L R Sampling rate : 48.0 KHz Compression mode : Lossy Stream size : 51.0 MiB (6%) ```

File list

  • [NSBC] Good Doctor E10 END [WEBDL] [720p].mp4 (872.2 MiB)

Comments - 0