[DNFI-Raw] Doraemon the Movie 38: Nobita's Treasure Island (映画ドラえもん のび太の宝島) Final Muxed x264 1080p.mp4

Category:
Date:
2018-08-22 00:19 UTC
Submitter:
Seeders:
3
Information:
Leechers:
0
File size:
2.3 GiB
Completed:
2326
Info hash:
334e449448e195a8f4dd93bfec8be12974c9e46f
Final muxed RAW, encoded from original Blu-ray disc (\BDMV\STREAM\00000.m2ts), means best encoded video. If my BitTorrent does not seed properly, please use my direct download… Direct download: https://drive.google.com/uc?id=1pXHwrLVt52tunj1aQ1Hyp5FKvvSlrv6E&export=download Watch online: (You can watch online from gdrive link above) My timed japsub: N/A Mediainfo: General Complete name : ...\[DNFI-Raw] Doraemon the Movie 38 - Nobita's Treasure Island x264 1080p.mp4 Format : MPEG-4 Format profile : Base Media Codec ID : isom (isom/avc1) File size : 2.31 GiB Duration : 1h 48mn Overall bit rate mode : Variable Overall bit rate : 3 050 Kbps Encoded date : UTC 2018-08-21 16:30:29 Tagged date : UTC 2018-08-21 16:30:29 Video ID : 1 Format : AVC Format/Info : Advanced Video Codec Format profile : Main@L5.1 Format settings, CABAC : Yes Format settings, ReFrames : 16 frames Codec ID : avc1 Codec ID/Info : Advanced Video Coding Duration : 1h 48mn Bit rate : 2 894 Kbps Maximum bit rate : 25.5 Mbps Width : 1 920 pixels Height : 1 080 pixels Display aspect ratio : 16:9 Frame rate mode : Constant Frame rate : 23.976 (24000/1001) fps Color space : YUV Chroma subsampling : 4:2:0 Bit depth : 8 bits Scan type : Progressive Bits/(Pixel*Frame) : 0.058 Stream size : 2.19 GiB (95%) Writing library : x264 core 152 r2851 ba24899 Encoding settings : cabac=1 / ref=16 / deblock=1:1:1 / analyse=0x1:0 / me=umh / subme=10 / psy=1 / psy_rd=0.40:0.00 / mixed_ref=1 / me_range=24 / chroma_me=1 / trellis=2 / 8x8dct=0 / cqm=0 / deadzone=21,11 / fast_pskip=1 / chroma_qp_offset=-2 / threads=12 / lookahead_threads=3 / sliced_threads=0 / nr=0 / decimate=1 / interlaced=0 / bluray_compat=0 / constrained_intra=0 / bframes=16 / b_pyramid=2 / b_adapt=2 / b_bias=0 / direct=3 / weightb=1 / open_gop=0 / weightp=2 / keyint=230 / keyint_min=23 / scenecut=40 / intra_refresh=0 / rc_lookahead=60 / rc=crf / mbtree=1 / crf=18.0 / qcomp=0.60 / qpmin=0 / qpmax=69 / qpstep=4 / ip_ratio=1.40 / aq=1:0.60 Encoded date : UTC 2018-08-21 16:30:29 Tagged date : UTC 2018-08-21 16:33:29 Audio ID : 2 Format : AAC Format/Info : Advanced Audio Codec Format profile : LC Codec ID : 40 Duration : 1h 48mn Bit rate mode : Variable Bit rate : 152 Kbps Maximum bit rate : 201 Kbps Channel(s) : 2 channels Channel positions : Front: L R Sampling rate : 48.0 KHz Frame rate : 46.875 fps (1024 spf) Compression mode : Lossy Stream size : 118 MiB (5%) Encoded date : UTC 2018-08-21 05:52:52 Tagged date : UTC 2018-08-21 16:33:29 Image preview: ![alt text](https://image.prntscr.com/image/YH8L5c2sSleSlZvhVkBZCQ.jpg "Doraemon the Movie 38: Nobita's Treasure Island")

File list

  • [DNFI-Raw] Doraemon the Movie 38 - Nobita's Treasure Island x264 1080p.mp4 (2.3 GiB)
![](https://cdn.discordapp.com/emojis/395965977935740948.png)
Thanks♪(・ω・)ノ