[R1C3R21] Detective Conan Ending 19 - Nemuru Kimi no Yokogao ni Hohoemi o (TV version)

Category:
Date:
2018-08-17 21:54 UTC
Submitter:
Anonymous
Seeders:
0
Information:
eldetectiuconan.gq
Leechers:
1
File size:
10.1 MiB
Completed:
54
Info hash:
13509e01ed5e83e0984851d3fd5ddc47e48ff6c5
This is the ending 19 of Detective Conan in true lossless format. I still don't get it why nobody uploaded such an old (but GREAT :D) song, but hey, better late than never right? ;) The song is extracted from the album Hekonda Kimochi Tokasu Kimi (GZCA-4008). Down here I include the log for the rip, which encompasses all the disc rather than just the song, just to be clear. If you want to support my work and wants some more uploads for Detective Conan, check out my website in my information spot (it's in catalan though, but it's really easy to navigate, trust me). LOG: Exact Audio Copy V1.3 from 2. September 2016 EAC extraction logfile from 17. August 2018, 22:39 三枝夕夏 IN db / へこんだ気持ち 溶かすキミ Used drive : HL-DT-STDVDRW GX40N Adapter: 1 ID: 0 Read mode : Secure Utilize accurate stream : Yes Defeat audio cache : Yes Make use of C2 pointers : No Read offset correction : 6 Overread into Lead-In and Lead-Out : No Fill up missing offset samples with silence : Yes Delete leading and trailing silent blocks : No Null samples used in CRC calculations : Yes Used interface : Native Win32 interface for Win NT & 2000 Used output format : User Defined Encoder Selected bitrate : 1024 kBit/s Quality : High Add ID3 tag : No Command line compressor : C:\Program Files (x86)\Exact Audio Copy\FLAC\FLAC.EXE Additional command line options : -6 -V -T "ARTIST=%artist%" -T "TITLE=%title%" -T "ALBUM=%albumtitle%" -T "DATE=%year%" -T "TRACKNUMBER=%tracknr%" -T "GENRE=%genre%" -T "COMMENT=%comment%" -T "BAND=%albuminterpret%" -T "ALBUMARTIST=%albuminterpret%" -T "COMPOSER=%composer%" %haslyrics%--tag-from-file=LYRICS="%lyricsfile%"%haslyrics% -T "DISCNUMBER=%cdnumber%" -T "TOTALDISCS=%totalcds%" -T "TOTALTRACKS=%numtracks%" %hascover%--picture="%coverfile%"%hascover% %source% -o %dest% TOC of the extracted CD Track | Start | Length | Start sector | End sector --------------------------------------------------------- 1 | 0:00.00 | 3:16.30 | 0 | 14729 2 | 3:16.30 | 4:12.70 | 14730 | 33699 3 | 7:29.25 | 1:29.62 | 33700 | 40436 4 | 8:59.12 | 4:40.50 | 40437 | 61486 5 | 13:39.62 | 3:14.55 | 61487 | 76091 Range status and errors Selected range

File list

  • Nemuru Kimi no Yokogao ni Hohoemi o (TV version).flac (10.1 MiB)
If anybody is interested on the rest of the songs of the album, which are also not uploaded whatsoever on the internet, tell me so!
Hello racer, please upload the rest of the album. Thank you for this upload.
Warmsnow they are at my website, if you want more info google "detective conan racer21", down there you'll find the album plus dcans (cant pass the link due to rules)