Detective Conan - 129 [WAVE][A0A42864].mkv

Category:
Date:
2018-08-16 06:54 UTC
Submitter:
Seeders:
2
Information:
No information.
Leechers:
0
File size:
1.0 GiB
Completed:
188
Info hash:
bb0f76e32c8801cdcf11b3b1f2622a3fad061dfd
Forgot to bundle the fonts, will v2 later. --- Subs: KnKF Raw: Reghost-Fabre --- MediaInfo ``` General Unique ID : 156104164541516477557751426066567896298 (0x75709188C8AA38F3B1224C298D739CEA) Complete name : F:\Anime\Detective Conan\Detective Conan S05 - [107-134]\Detective Conan - 129 [WAVE][A0A42864].mkv Format : Matroska Format version : Version 4 / Version 2 File size : 1.02 GiB Duration : 1 h 33 min Overall bit rate : 1 560 kb/s Encoded date : UTC 2018-08-16 06:40:38 Writing application : mkvmerge v25.0.0 ('Prog Noir') 64-bit Writing library : libebml v1.3.6 + libmatroska v1.4.9 Video ID : 1 Format : AVC Format/Info : Advanced Video Codec Format profile : High 10@L4 Format settings : CABAC / 16 Ref Frames Format settings, CABAC : Yes Format settings, RefFrames : 16 frames Codec ID : V_MPEG4/ISO/AVC Duration : 1 h 33 min Bit rate : 1 366 kb/s Width : 720 pixels Height : 480 pixels Display aspect ratio : 4:3 Frame rate mode : Constant Frame rate : 23.976 (23976/1000) FPS Original frame rate : 23.976 (24000/1001) FPS Color space : YUV Chroma subsampling : 4:2:0 Bit depth : 10 bits Scan type : Progressive Bits/(Pixel*Frame) : 0.165 Stream size : 916 MiB (88%) Title : [720x480/4:3@10bits] Reghost-Fabre Writing library : x264 core 146 r2538 121396c Encoding settings : cabac=1 / ref=16 / deblock=1:0:0 / analyse=0x3:0x133 / me=umh / subme=10 / psy=1 / psy_rd=1.00:0.00 / mixed_ref=1 / me_range=24 / chroma_me=1 / trellis=2 / 8x8dct=1 / cqm=0 / deadzone=21,11 / fast_pskip=1 / chroma_qp_offset=-2 / threads=6 / lookahead_threads=1 / sliced_threads=0 / nr=0 / decimate=1 / interlaced=0 / bluray_compat=0 / constrained_intra=0 / bframes=8 / b_pyramid=2 / b_adapt=2 / b_bias=0 / direct=3 / weightb=1 / open_gop=0 / weightp=2 / keyint=240 / keyint_min=23 / scenecut=40 / intra_refresh=0 / rc_lookahead=60 / rc=crf / mbtree=1 / crf=16.0 / qcomp=0.60 / qpmin=0 / qpmax=81 / qpstep=4 / ip_ratio=1.40 / aq=1:1.00 Language : Japanese Default : Yes Forced : No Audio ID : 2 Format : AC-3 Format/Info : Audio Coding 3 Codec ID : A_AC3 Duration : 1 h 33 min Bit rate mode : Constant Bit rate : 192 kb/s Channel(s) : 2 channels Channel positions : Front: L R Sampling rate : 48.0 kHz Frame rate : 31.250 FPS (1536 SPF) Bit depth : 16 bits Compression mode : Lossy Stream size : 129 MiB (12%) Title : Kuro no Soshiki Kara Kita Onna Daigaku Kyōju Satsujin Jiken (黒の組織から来た女 大学教授殺人事件) [日本語] Language : Japanese Service kind : Complete Main Default : Yes Forced : No Text ID : 3 Format : ASS Codec ID : S_TEXT/ASS Codec ID/Info : Advanced Sub Station Alpha Duration : 1 h 33 min Bit rate : 129 b/s Count of elements : 1363 Compression mode : Lossless Stream size : 88.8 KiB (0%) Title : KnKF Language : English Default : Yes Forced : No Menu 00:00:00.000 : en:Chapter 1 00:01:34.934 : en:Chapter 2 00:14:00.668 : en:Chapter 3 00:23:45.102 : en:Chapter 4 00:32:14.602 : en:Chapter 5 00:39:15.169 : en:Chapter 6 00:44:57.936 : en:Chapter 7 00:54:16.370 : en:Chapter 8 01:00:22.004 : en:Chapter 9 01:08:24.571 : en:Chapter 10 01:15:09.205 : en:Chapter 11 01:28:54.006 : en:Chapter 12 01:32:55.707 : en:Chapter 13 ```

File list

  • Detective Conan - 129 [WAVE][A0A42864].mkv (1.0 GiB)
Thanks a lot for this!
Thanks alot, appreciate it.