[UM] TVアニメ『ブギーポップは笑わない』 ティザーPV/Boogiepop wa Warawanai (Teaser PV) [WebRip 1920x810 x264 AAC]

Category:
Date:
2018-08-10 11:14 UTC
Submitter:
Anonymous
Seeders:
0
File size:
49.9 MiB
Completed:
62
Info hash:
cc398c2483245831b74766f809a746bf7c64ef49
[![Boogiepop wa Warawanai](http://boogiepop-anime.com/images/teaser/main.jpg "TVアニメ『ブギーポップは笑わない』Official website")](//boogiepop-anime.com/) ### Boogiepop wa Warawanai (ブギーポップは笑わない) > Genres: Horror, Mystery, Psychological Studios: **Madhouse** #### Synopsis: > There is an urban legend that tells of a shinigami that can release people from the pain they are suffering. This "Angel of Death" has a name–Boogiepop. And the legends are true. Boogiepop is real. When a rash of disappearances involving female students breaks out at Shinyo Academy, the police and faculty assume they just have a bunch of runaways on their hands. Yet some students know better. Something mysterious and foul is afoot. Is it Boogiepop or something even more sinister...? ![Boogiepop wa Warawanai Teaser PV Thumbs](https://lh3.googleusercontent.com/wy7O3mBVtVNAWZsrec0Ks82iGo_hffhAof-9uWzAmgP8iY_9ywyHK51BQEMmyoQfkVNtNXKSZm-nK8etuIHMo6cihMNwFXCqZADERDpeO8YQ9pa7E24TR47qYW4y15Nwd1neHK2FwGyIW5gjRIdDKLviFtug08RFAkF0GSIA_puRlOcZlKcHM-LeU8pByAeKz-qlJD4UeBmsHSG5T2ga7MLsnU_4WMX4nnIwDGLHgqwkGR_riBrdO6Q0pmEs8ptaaivHcl70kKpf8jX4OxhaDUPo7FsM8mo0WTPg4ax5BhBwAuoMR3004KSWxYGrYSemun8E09Z4KbUmtYdsXiDjn5kU1614ksb3y1Te6ImrPhyLE6EyLZx6dourZ75VIiE3P_ttM5n5HVlg85DHsQ4GDLvR7mct9n-qESLv8SPwkdPxgFfTyYiOS8Uy1s_qBnCi9ntMfR_W1BqfyFe31WSJPO5WDAF8eMzhEcnGhiYArZVU5gHTIP2f_QlM64CXGJ6JrQBa6AFNxrVRAozD9PycAzCeIi51Ikj5yPEbkSWFUzXFePA4YeFNMRMUxHNo_G--aRwnoRSuYvon5xKU3lB1H11lYbicxnTKlBl99cCorDD1qzoNqBu4YfzJd2Ur0snL6O_t-BJ74AiFdtv6wO3SdW6wjtxB5NkR=w1920-h810-no) #### MediaInfo: ``` General Unique ID : 276277326312804745398025900528536700666 (0xCFD913DBA2728A45A6E0A06FBC04C6FA) Complete name : [UM] Boogiepop wa Warawanai (Teaser PV) [WebRip 1920x810 x264 AAC][3912C2C9].mkv Format : Matroska Format version : Version 4 / Version 2 File size : 49.9 MiB Duration : 1 min 26 s Overall bit rate : 4 855 kb/s Movie name : [UchiMaki] 『ブギーポップは笑わない』 ティザーPV (Boogiepop wa Warawanai) Teaser PV [WebRip] Writing application : mkvmerge v25.0.0 ('Prog Noir') 64-bit Writing library : libebml v1.3.6 + libmatroska v1.4.9 Video ID : 1 Format : AVC Format/Info : Advanced Video Codec Format profile : High@L4.1 Format settings, CABAC : Yes Format settings, RefFrames : 5 frames Codec ID : V_MPEG4/ISO/AVC Duration : 1 min 26 s Bit rate : 4 732 kb/s Width : 1 920 pixels Height : 810 pixels Display aspect ratio : 2.40:1 Frame rate mode : Constant Frame rate : 23.976 (23976/1000) FPS Color space : YUV Chroma subsampling : 4:2:0 Bit depth : 8 bits Scan type : Progressive Bits/(Pixel*Frame) : 0.127 Stream size : 48.6 MiB (97%) Title : 『ブギーポップは笑わない』 ティザーPV (Boogiepop wa Warawanai) Teaser PV (WebRip 1920x810 x264 8bit) Writing library : x264 core 155 r2901 7d0ff22 Encoding settings : cabac=1 / ref=5 / deblock=1:0:0 / analyse=0x3:0x133 / me=umh / subme=10 / psy=1 / psy_rd=1.00:0.00 / mixed_ref=1 / me_range=24 / chroma_me=1 / trellis=2 / 8x8dct=1 / cqm=0 / deadzone=21,11 / fast_pskip=1 / chroma_qp_offset=-2 / threads=3 / lookahead_threads=1 / sliced_threads=0 / nr=0 / decimate=1 / interlaced=0 / bluray_compat=0 / constrained_intra=0 / bframes=8 / b_pyramid=2 / b_adapt=2 / b_bias=0 / direct=3 / weightb=1 / open_gop=0 / weightp=2 / keyint=240 / keyint_min=24 / scenecut=40 / intra_refresh=0 / rc_lookahead=60 / rc=crf / mbtree=1 / crf=14.0 / qcomp=0.60 / qpmin=0 / qpmax=69 / qpstep=4 / vbv_maxrate=62500 / vbv_bufsize=78125 / crf_max=0.0 / nal_hrd=none / filler=0 / ip_ratio=1.40 / aq=1:1.00 Language : Japanese Default : Yes Forced : No Color range : Limited Color primaries : BT.709 Transfer characteristics : BT.709 Matrix coefficients : BT.709 Audio ID : 2 Format : AAC Format/Info : Advanced Audio Codec Format profile : HE-AAC / LC Codec ID : A_AAC Duration : 1 min 26 s Bit rate : 128 kb/s Channel(s) : 2 channels Channel positions : Front: L R Sampling rate : 48.0 kHz / 24.0 kHz Frame rate : 23.438 FPS (1024 SPF) Compression mode : Lossy Stream size : 1.32 MiB (3%) Language : Japanese Default : Yes Forced : No Menu 00:00:00.000 : ja: 00:00:03.088 : ja: 00:01:15.596 : ja:Nani Kore... :3 00:01:20.226 : ja: ``` #### Please continue seeding Senpai, if possible 😊 #### DDL => [MEGA](https://mega.nz/#!YyZC0aLL!MRVbSfULIIGW30SzAEUqX2y-DAtyVCRLLV8mlnU1IoU)

File list

  • [UM] Boogiepop wa Warawanai (Teaser PV) [WebRip 1920x810 x264 AAC][3912C2C9].mkv (49.9 MiB)

Comments - 0