[NSBC] Majimuri Gakuen E04 [WEBDL] [720p]

Category:
Date:
2018-08-10 01:00 UTC
Submitter:
Seeders:
1
Information:
NSBC.to
Leechers:
0
File size:
201.3 MiB
Completed:
375
Info hash:
fbe6659da7d07a44daf49b61af866bc1cca3bb07
`the .TS file little bit worse so yeah` ![alt text](http://img.topddl.net/images/3c1f83024f9fb2980d9e004fe251df68.jpg "") ``` General Format : MPEG-4 Format profile : Base Media Codec ID : isom File size : 201 MiB Duration : 22mn 28s Overall bit rate : 1 252 Kbps Writing application : Lavf57.83.100 Video ID : 1 Format : AVC Format/Info : Advanced Video Codec Format profile : High@L3.1 Format settings, CABAC : Yes Format settings, ReFrames : 4 frames Codec ID : avc1 Codec ID/Info : Advanced Video Coding Duration : 22mn 28s Bit rate : 1 113 Kbps Width : 1 280 pixels Height : 720 pixels Display aspect ratio : 16:9 Frame rate mode : Constant Frame rate : 30.000 fps Color space : YUV Chroma subsampling : 4:2:0 Bit depth : 8 bits Scan type : Progressive Bits/(Pixel*Frame) : 0.040 Stream size : 179 MiB (89%) Writing library : x264 core 148 r2795 aaa9aa8 Encoding settings : cabac=1 / ref=3 / deblock=1:0:0 / analyse=0x3:0x113 / me=hex / subme=7 / psy=1 / psy_rd=1.00:0.00 / mixed_ref=1 / me_range=16 / chroma_me=1 / trellis=1 / 8x8dct=1 / cqm=0 / deadzone=21,11 / fast_pskip=1 / chroma_qp_offset=-2 / threads=12 / lookahead_threads=2 / sliced_threads=0 / nr=0 / decimate=1 / interlaced=0 / bluray_compat=0 / constrained_intra=0 / bframes=3 / b_pyramid=2 / b_adapt=1 / b_bias=0 / direct=1 / weightb=1 / open_gop=0 / weightp=2 / keyint=250 / keyint_min=25 / scenecut=40 / intra_refresh=0 / rc_lookahead=40 / rc=crf / mbtree=1 / crf=23.0 / qcomp=0.60 / qpmin=0 / qpmax=69 / qpstep=4 / ip_ratio=1.40 / aq=1:1.00 Audio ID : 2 Format : AAC Format/Info : Advanced Audio Codec Format profile : LC Codec ID : 40 Duration : 22mn 28s Bit rate mode : Constant Bit rate : 132 Kbps Channel(s) : 2 channels Channel positions : Front: L R Sampling rate : 44.1 KHz Compression mode : Lossy Stream size : 20.9 MiB (10%) ```

File list

  • [NSBC] Majimuri Gakuen E04 [WEBDL] [720p].mp4 (201.3 MiB)

Comments - 0