[Komorebi] Carnival Phantasm EX Season [BD 1080p x264-10bit FLAC]

Category:
Date:
2018-08-09 16:27 UTC
Submitter:
Seeders:
3
Information:
#komorebi @ irc.rizon.net
Leechers:
0
File size:
882.0 MiB
Completed:
562
Info hash:
86f8edfe2794acc17c6ba3bbcbee6654ab2760b4
Bluray source with UTW subs. ``` General Unique ID : 149221193009217757248686257774023835859 (0x7042F4D6539A50C4314CAD12960A80D3) Complete name : [Komorebi] Carnival Phantasm EX Season [BD 1080p x264-10bit FLAC]\[Komorebi] Carnival Phantasm EX Season (BD 1080p x264-10bit FLAC) [C213035A].mkv Format : Matroska Format version : Version 4 / Version 2 File size : 882 MiB Duration : 20 min 24 s Overall bit rate mode : Variable Overall bit rate : 6 041 kb/s Movie name : [Komorebi] Carnival Phantasm: EX Season Encoded date : UTC 2018-08-09 16:18:32 Writing application : mkvmerge v23.0.0 ('The Bride Said No') 64-bit Writing library : libebml v1.3.6 + libmatroska v1.4.9 Attachments : BadMofo.ttf / DFGLeishoW6-Kami.ttf / DFGTFLeisho-W9-Kampfer.ttf / DFPGothW5-Madoka.ttf / DFPHSMaru-W4-CP.ttf / DFPSHT-W5-Madoka.ttf / ElmerFont-En.ttf / FGPGyoshoCC-M-CP2.ttf / FOT-HummingStdEn-B.OTF / HeiseiKakuGoStd-W5-Fate.ttf / HeiseiMaruGoStd-W8-CP.ttf / HeiseiMinchoStd-Gosick.ttf / IgniteTheLight.ttf / IwaMinPro-Md-Kami.ttf / IwaNGoPro-Bd-CP.ttf / IwaNGoPro-Eb-CP.ttf / JAPAB_.TTF / KozGoProH-Madoka.ttf / Northern Territories.ttf / paintbr.ttf / parla.ttf / posthuman.ttf / Profile-Medium.otf / Profile-Regular.otf / Samurai-Gosick.ttf / ThrowMyHandsUpInTheAir-CP.ttf / VD-LogoG-EP-CP.ttf / A-OTF-MaruFoPro-Medium-CP.ttf Video ID : 1 Format : AVC Format/Info : Advanced Video Codec Format profile : High 10@L5.1 Format settings : CABAC / 16 Ref Frames Format settings, CABAC : Yes Format settings, RefFrames : 16 frames Codec ID : V_MPEG4/ISO/AVC Duration : 20 min 24 s Bit rate : 5 208 kb/s Width : 1 920 pixels Height : 1 080 pixels Display aspect ratio : 16:9 Frame rate mode : Constant Frame rate : 23.976 (24000/1001) FPS Color space : YUV Chroma subsampling : 4:2:0 Bit depth : 10 bits Scan type : Progressive Bits/(Pixel*Frame) : 0.105 Stream size : 760 MiB (86%) Title : Episode Writing library : x264 core 155 r2901 7d0ff22 Encoding settings : cabac=1 / ref=16 / deblock=1:1:-1 / analyse=0x3:0x133 / me=umh / subme=11 / psy=1 / psy_rd=0.55:0.20 / mixed_ref=1 / me_range=32 / chroma_me=1 / trellis=2 / 8x8dct=1 / cqm=0 / deadzone=21,11 / fast_pskip=0 / chroma_qp_offset=-3 / threads=12 / lookahead_threads=3 / sliced_threads=0 / nr=0 / decimate=0 / interlaced=0 / bluray_compat=0 / constrained_intra=0 / bframes=12 / b_pyramid=2 / b_adapt=2 / b_bias=0 / direct=3 / weightb=1 / open_gop=0 / weightp=2 / keyint=250 / keyint_min=23 / scenecut=40 / intra_refresh=0 / rc_lookahead=250 / rc=crf / mbtree=1 / crf=17.0 / qcomp=0.80 / qpmin=0 / qpmax=81 / qpstep=4 / ip_ratio=1.40 / aq=2:0.85 Language : Japanese Default : Yes Forced : Yes Color range : Limited Color primaries : BT.709 Transfer characteristics : BT.709 Matrix coefficients : BT.709 Audio ID : 2 Format : FLAC Format/Info : Free Lossless Audio Codec Codec ID : A_FLAC Duration : 20 min 24 s Bit rate mode : Variable Bit rate : 748 kb/s Channel(s) : 2 channels Channel positions : Front: L R Sampling rate : 48.0 kHz Frame rate : 11.719 FPS (4096 SPF) Bit depth : 16 bits Stream size : 109 MiB (12%) Title : Japanese Audio Writing library : libFLAC 1.3.1 (UTC 2014-11-25) Language : Japanese Default : Yes Forced : Yes Text ID : 3 Format : ASS Codec ID : S_TEXT/ASS Codec ID/Info : Advanced Sub Station Alpha Duration : 20 min 13 s Bit rate : 5 910 b/s Count of elements : 5965 Compression mode : Lossless Stream size : 875 KiB (0%) Title : English Subtitles [UTW] Language : English Default : Yes Forced : Yes Menu 00:00:00.000 : en:Prologue 00:01:17.851 : en:Ahnenerbe: Still Open 00:01:45.939 : en:Opening 00:03:20.951 : en:Short Skit: Friends 00:04:00.240 : en:Junction: Drunk 00:04:12.377 : en:Radical Caren-chan 00:08:59.080 : en:Junction: Samples 00:09:13.516 : en:Five Ren Cats Part 1 00:10:09.442 : en:Five Ren Cats Part 2 00:10:28.962 : en:Five Ren Cats Part 3 00:10:52.652 : en:Junction: Movie 00:11:02.912 : en:Phantasmoon: The Movie 00:15:04.654 : en:Junction: Moved 00:15:24.298 : en:Short Skit: It's NRVNQSR 00:15:45.361 : en:Short Skit: It's a Challenge 00:16:12.972 : en:Junction: Bad Economy 00:16:51.010 : en:Taiga Dojo: Spinoff Edition 00:17:42.353 : en:Ending 00:19:12.443 : en:Lunar Eclipse ```

File list