[Neutrinome] Maoyuu Maou Yuusha - VOSTFR [1080p BDRip FLAC] + DDL

Category:
Date:
2018-08-08 20:43 UTC
Submitter:
Seeders:
3
Information:
Leechers:
0
File size:
15.4 GiB
Completed:
117
Info hash:
3d7476016a41d630718bb0dced46be9905234d43
Maoyuu Maou Yuusha ====== *** ![alt text](https://www.thetvdb.com/banners/posters/264056-1.jpg) *** * **Date de sortie** : 2013 * **Durée** : 12*23min * **Licencié** : Non * **Vidéo** : Kagura * **Sous-titre** : Yarashii-Fansub * **Lien DDL** : [Uptobox](https://uptobox.com/8vtkeb3g0q3h) *** **NFO** General Unique ID : 129284912637089931868118641751778297273 (0x61435E536DD4B7E750E3FE9DDE3685B9) Format : Matroska Format version : Version 4 / Version 2 File size : 1.20 GiB Duration : 23 min 41 s Overall bit rate mode : Variable Overall bit rate : 7 263 kb/s Encoded date : UTC 2018-03-13 21:19:11 Writing application : mkvmerge v20.0.0 ('I Am The Sun') 32-bit Writing library : libebml v1.3.5 + libmatroska v1.4.8 Video ID : 1 Format : AVC Format/Info : Advanced Video Codec Format profile : High 10@L5.1 Format settings, CABAC : Yes Format settings, RefFrames : 8 frames Codec ID : V_MPEG4/ISO/AVC Duration : 23 min 41 s Bit rate : 5 870 kb/s Width : 1 920 pixels Height : 1 080 pixels Display aspect ratio : 16:9 Frame rate mode : Constant Frame rate : 23.976 (24000/1001) FPS Color space : YUV Chroma subsampling : 4:2:0 Bit depth : 10 bits Scan type : Progressive Bits/(Pixel*Frame) : 0.118 Stream size : 994 MiB (81%) Title : [Kagura] Maoyuu Maou Yuusha - 01 [BDRip 1920x1080 x264 Hi10P FLAC] Writing library : x264 core 130 r2274+704+41 4bc4774 tMod+TriAQ [10-bit@all X86_64] Encoding settings : cabac=1 / ref=8 / deblock=1:0:0 / analyse=0x3:0x133 / me=umh / subme=10 / psy=1 / fade_compensate=0.00 / psy_rd=0.90:0.05 / mixed_ref=1 / me_range=32 / chroma_me=1 / trellis=2 / 8x8dct=1 / cqm=0 / deadzone=21,11 / fast_pskip=0 / chroma_qp_offset=-4 / threads=12 / lookahead_threads=3 / sliced_threads=0 / nr=0 / decimate=0 / interlaced=0 / bluray_compat=0 / constrained_intra=0 / fgo=2 / bframes=10 / b_pyramid=2 / b_adapt=2 / b_bias=0 / direct=3 / weightb=1 / open_gop=0 / weightp=2 / keyint=480 / keyint_min=4 / scenecut=50 / intra_refresh=0 / rc=crf / mbtree=0 / crf=16.5000 / qcomp=0.70 / qpmin=8 / qpmax=40 / qpstep=4 / ip_ratio=1.40 / pb_ratio=1.24 / aq=3:0.80 / aq-sensitivity=10.00 / aq-factor=1.00:1.00:1.00 / aq2=0 / aq3=0 Language : Japanese Default : Yes Forced : Yes Audio ID : 2 Format : FLAC Format/Info : Free Lossless Audio Codec Codec ID : A_FLAC Duration : 23 min 41 s Bit rate mode : Variable Bit rate : 1 395 kb/s Channel(s) : 2 channels Channel positions : Front: L R Sampling rate : 48.0 kHz Frame rate : 11.719 FPS (4096 SPF) Bit depth : 24 bits Stream size : 236 MiB (19%) Writing library : libFLAC 1.2.1 (UTC 2007-09-17) Language : Japanese Default : Yes Forced : No Text ID : 3 Format : ASS Codec ID : S_TEXT/ASS Codec ID/Info : Advanced Sub Station Alpha Duration : 23 min 40 s Bit rate : 149 b/s Count of elements : 379 Compression mode : Lossless Stream size : 25.8 KiB (0%) Title : Français Language : French Default : Yes Forced : No

File list

  • [Neutrinome] Maoyuu Maou Yuusha - VOSTFR [1080p BDRip FLAC]
    • EXTRA
      • NC
        • [Kagura] Maoyuu Maou Yuusha - NCED [BDRip 1920x1080 x264 Hi10P FLAC].mkv (46.0 MiB)
        • [Kagura] Maoyuu Maou Yuusha - NCOP [BDRip 1920x1080 x264 Hi10P FLAC].mkv (196.0 MiB)
      • Scans
        • Vol.1
          • IMG_001.png (7.3 MiB)
          • IMG_002.png (3.8 MiB)
          • IMG_003.png (13.2 MiB)
          • IMG_004.png (12.7 MiB)
          • IMG_005.png (5.5 MiB)
          • IMG_006.png (5.3 MiB)
          • IMG_007.png (5.6 MiB)
          • IMG_008.png (5.4 MiB)
          • IMG_009_010.png (10.8 MiB)
          • IMG_011.png (5.5 MiB)
          • IMG_012.png (5.4 MiB)
        • Vol.2
          • IMG_001.png (5.6 MiB)
          • IMG_002.2.png (5.6 MiB)
          • IMG_002.png (5.2 MiB)
          • IMG_003.png (5.4 MiB)
          • IMG_004-005.png (11.3 MiB)
          • IMG_006.png (6.2 MiB)
          • IMG_007.png (5.5 MiB)
          • IMG_008.png (5.4 MiB)
          • IMG_009.png (5.2 MiB)
          • IMG_010.png (5.4 MiB)
          • IMG_011.png (5.5 MiB)
          • IMG_012.png (5.2 MiB)
          • IMG_013.png (5.4 MiB)
          • IMG_014.png (4.0 MiB)
          • IMG_015.png (12.6 MiB)
          • IMG_016.png (13.3 MiB)
          • IMG_017.png (6.9 MiB)
          • IMG_018.png (7.5 MiB)
        • Vol.3
          • IMG_01.png (7.0 MiB)
          • IMG_02.png (2.2 MiB)
          • IMG_03.png (7.3 MiB)
          • IMG_04.png (13.3 MiB)
          • IMG_05.png (12.9 MiB)
          • IMG_06.png (3.9 MiB)
          • IMG_07_08.png (10.9 MiB)
          • IMG_09.png (5.1 MiB)
          • IMG_10_11.png (11.4 MiB)
          • IMG_12.png (5.4 MiB)
          • IMG_13.png (5.5 MiB)
          • IMG_14.png (5.5 MiB)
        • Vol.4
          • IMG_001.png (12.9 MiB)
          • IMG_002.png (12.4 MiB)
          • IMG_003.png (4.3 MiB)
          • IMG_004.png (5.6 MiB)
          • IMG_005_006.png (11.0 MiB)
          • IMG_007.png (5.5 MiB)
          • IMG_008_009.png (10.7 MiB)
          • IMG_010.png (5.2 MiB)
          • IMG_011.png (4.8 MiB)
          • IMG_012.png (7.0 MiB)
          • IMG_013.png (2.2 MiB)
          • IMG_014.png (7.2 MiB)
        • Vol.5
          • IMG_001.png (13.4 MiB)
          • IMG_002.png (12.9 MiB)
          • IMG_003.png (4.0 MiB)
          • IMG_004.png (5.6 MiB)
          • IMG_005_006.png (11.0 MiB)
          • IMG_007.png (5.4 MiB)
          • IMG_008_009.png (10.8 MiB)
          • IMG_010_011.png (11.3 MiB)
          • IMG_012.png (5.6 MiB)
          • IMG_013_014.png (10.8 MiB)
          • IMG_015.png (5.2 MiB)
          • IMG_016.png (5.5 MiB)
          • IMG_017.png (5.3 MiB)
        • Vol.6
          • IMG_001.png (3.9 MiB)
          • IMG_002.png (13.3 MiB)
          • IMG_003.png (12.5 MiB)
          • IMG_004.png (5.7 MiB)
          • IMG_005_006.png (10.6 MiB)
          • IMG_007.png (5.2 MiB)
          • IMG_008.png (10.8 MiB)
          • IMG_009.png (4.1 MiB)
          • IMG_010.png (4.2 MiB)
          • IMG_011.png (4.9 MiB)
          • IMG_012.png (5.6 MiB)
    • Maoyuu Maou Yuusha - 01 - VOSTFR [1080p BDRip FLAC].mkv (1.2 GiB)
    • Maoyuu Maou Yuusha - 02 - VOSTFR [1080p BDRip FLAC].mkv (1.2 GiB)
    • Maoyuu Maou Yuusha - 03 - VOSTFR [1080p BDRip FLAC].mkv (1.1 GiB)
    • Maoyuu Maou Yuusha - 04 - VOSTFR [1080p BDRip FLAC].mkv (1.0 GiB)
    • Maoyuu Maou Yuusha - 05 - VOSTFR [1080p BDRip FLAC].mkv (1.1 GiB)
    • Maoyuu Maou Yuusha - 06 - VOSTFR [1080p BDRip FLAC].mkv (1.3 GiB)
    • Maoyuu Maou Yuusha - 07 - VOSTFR [1080p BDRip FLAC].mkv (1.1 GiB)
    • Maoyuu Maou Yuusha - 08 - VOSTFR [1080p BDRip FLAC].mkv (1.2 GiB)
    • Maoyuu Maou Yuusha - 09 - VOSTFR [1080p BDRip FLAC].mkv (1.1 GiB)
    • Maoyuu Maou Yuusha - 10 - VOSTFR [1080p BDRip FLAC].mkv (1.1 GiB)
    • Maoyuu Maou Yuusha - 11 - VOSTFR [1080p BDRip FLAC].mkv (1.8 GiB)
    • Maoyuu Maou Yuusha - 12 - VOSTFR [1080p BDRip FLAC].mkv (1.4 GiB)