[Aparviel] DARLING in the FRANXX Vol.1 (w/ SP0) [1080p BDRemux]

Category:
Date:
2018-08-06 12:31 UTC
Submitter:
Seeders:
1
Information:
Leechers:
1
File size:
28.7 GiB
Completed:
52
Info hash:
c2f8c6396083c7915d97c26e4326e76a736d0a4d
### 1st Blu-ray volume of DARLING in the FRANXX #### ANZX-14441 --- ##### All episodes have second audio track with exclusive commentary ##### Includes #0 special - Before Broadcast Special Program --- ![alt text](https://i.imgur.com/ZEom6sy.jpg "") --- ### Info ``` General Complete name : D:\DARLING in the FRANXX Vol.1 [1080p BDRemux]\DARLING in the FRANXX - 01 [1080p BDRemux].mkv Format : Matroska Format version : Version 4 / Version 2 File size : 7.11 GiB Duration : 24 min 2 s Overall bit rate mode : Variable Overall bit rate : 42.3 Mb/s Movie name : DARLING in the FRANXX Vol.1 Writing application : mkvmerge v25.0.0 ('Prog Noir') 64-bit Writing library : libebml v1.3.6 + libmatroska v1.4.9 Video ID : 1 Codec ID : V_MPEG4/ISO/AVC Duration : 24 min 2 s Bit rate mode : Variable Bit rate : 37.7 Mb/s Maximum bit rate : 40.0 Mb/s Width : 1 920 pixels Height : 1 080 pixels Display aspect ratio : 16:9 Frame rate mode : Constant Frame rate : 23.976 (24000/1001) FPS Color space : YUV Chroma subsampling : 4:2:0 Bit depth : 8 bits Scan type : Progressive Bits/(Pixel*Frame) : 0.759 Stream size : 6.33 GiB (89%) Audio #1 ID : 2 Format : PCM Codec ID : A_PCM/INT/LIT Bit rate mode : Constant Bit rate : 2 304 kb/s Channel(s) : 2 channels Sampling rate : 48.0 kHz Bit depth : 24 bits Stream size : 396 MiB (5%) Audio #2 ID : 3 Format : PCM Codec ID : A_PCM/INT/LIT Bit rate mode : Constant Bit rate : 2 304 kb/s Channel(s) : 2 channels Sampling rate : 48.0 kHz Bit depth : 24 bits Stream size : 396 MiB (5%) ```

File list

  • DARLING in the FRANXX Vol.1 [1080p BDRemux]
    • Bonus
      • DARLING in the FRANXX - Ep 01 Preview.mkv (132.9 MiB)
      • DARLING in the FRANXX - Ep 02 Preview.mkv (132.2 MiB)
      • DARLING in the FRANXX - Ep 03 Preview.mkv (133.8 MiB)
      • DARLING in the FRANXX vol.1 Menu.mkv (207.8 MiB)
      • IMG_0001.png (57.6 MiB)
      • IMG_0002.png (57.5 MiB)
    • DARLING in the FRANXX - 01 [1080p BDRemux].mkv (7.1 GiB)
    • DARLING in the FRANXX - 02 [1080p BDRemux].mkv (7.1 GiB)
    • DARLING in the FRANXX - 03 [1080p BDRemux].mkv (7.1 GiB)
    • DARLING in the FRANXX - SP0 (Before Broadcast Special Program) [1080p BDRemux].mkv (6.7 GiB)
Many thanks for your release.