[Aparviel] DARLING in the FRANXX Vol.3 [1080p BDRemux]

Category:
Date:
2018-08-05 15:56 UTC
Submitter:
Seeders:
1
Information:
Leechers:
1
File size:
22.0 GiB
Completed:
46
Info hash:
2759d960c8961b6bcb982eab0da8b971b7eeb0b7
### 3rd Blu-ray volume of DARLING in the FRANXX #### ANZX-14445 --- ##### All episodes have second audio track with exclusive commentary --- ![alt text](https://i.imgur.com/z772DWp.jpg "") --- ### Info ``` General Complete name : D:\DARLING in the FRANXX Vol.3 [1080p BDRemux]\DARLING in the FRANXX - 07 [1080p BDRemux].mkv Format : Matroska Format version : Version 4 / Version 2 File size : 7.11 GiB Duration : 24 min 2 s Overall bit rate mode : Variable Overall bit rate : 42.4 Mb/s Movie name : DARLING in the FRANXX Vol.3 Writing application : mkvmerge v25.0.0 ('Prog Noir') 64-bit Writing library : libebml v1.3.6 + libmatroska v1.4.9 Video ID : 1 Codec ID : V_MPEG4/ISO/AVC Duration : 24 min 2 s Bit rate mode : Variable Bit rate : 37.8 Mb/s Maximum bit rate : 40.0 Mb/s Width : 1 920 pixels Height : 1 080 pixels Display aspect ratio : 16:9 Frame rate mode : Constant Frame rate : 23.976 (24000/1001) FPS Color space : YUV Chroma subsampling : 4:2:0 Bit depth : 8 bits Scan type : Progressive Bits/(Pixel*Frame) : 0.760 Stream size : 6.34 GiB (89%) Audio #1 ID : 2 Format : PCM Codec ID : A_PCM/INT/LIT Bit rate mode : Constant Bit rate : 2 304 kb/s Channel(s) : 2 channels Sampling rate : 48.0 kHz Bit depth : 24 bits Delay relative to video : 32 ms Stream size : 396 MiB (5%) Audio #2 ID : 3 Format : PCM Codec ID : A_PCM/INT/LIT Bit rate mode : Constant Bit rate : 2 304 kb/s Channel(s) : 2 channels Sampling rate : 48.0 kHz Bit depth : 24 bits Delay relative to video : 32 ms Stream size : 396 MiB (5%) ```

File list

  • DARLING in the FRANXX Vol.3 [1080p BDRemux]
    • Bonus
      • DARLING in the FRANXX - Ep 07 Preview.mkv (132.2 MiB)
      • DARLING in the FRANXX - Ep 08 Preview.mkv (132.1 MiB)
      • DARLING in the FRANXX - Ep 09 Preview.mkv (131.8 MiB)
      • Darling in the FranXX Vol.3 Menu.mkv (207.5 MiB)
      • IMG_0001.png (65.0 MiB)
      • IMG_0002.png (66.2 MiB)
    • DARLING in the FRANXX - 07 [1080p BDRemux].mkv (7.1 GiB)
    • DARLING in the FRANXX - 08 [1080p BDRemux].mkv (7.1 GiB)
    • DARLING in the FRANXX - 09 [1080p BDRemux].mkv (7.1 GiB)
Remux the BD 25th Anniversary of Yu Yu Hakusho? Plz
Many thanks for your release.