[Aparviel] DARLING in the FRANXX Creator's Voice -complete ver.- [DVDRemux]

Category:
Date:
2018-08-05 12:27 UTC
Submitter:
Seeders:
1
Information:
Leechers:
1
File size:
2.9 GiB
Completed:
87
Info hash:
a0d163a77ee1ad4c2b693322f5b75d849fec9d60
### DARLING in the FRANXX Creator's Voice -complete ver.-, which comes in 3rd BD/DVD release. #### ANZX/ZB-14446 --- ![alt text](https://i.imgur.com/r6n607G.png "") --- ### Info ``` General Complete name : D:\DARLING in the FRANXX Creator's Voice -complete ver.-\DARLING in the FRANXX Creator's Voice -complete ver.-.mkv Format : Matroska Format version : Version 2 File size : 2.87 GiB Duration : 45 min 39 s Overall bit rate mode : Variable Overall bit rate : 8 997 kb/s Writing application : MakeMKV v1.12.3 win(x64-release) Writing library : libmakemkv v1.12.3 (1.3.5/1.4.7) win(x64-release) Video ID : 1 Codec ID : V_MPEG2 Duration : 45 min 39 s Bit rate mode : Variable Bit rate : 8 800 kb/s Maximum bit rate : 9 800 kb/s Width : 720 pixels Height : 480 pixels Display aspect ratio : 16:9 Frame rate mode : Constant Frame rate : 29.970 (30000/1001) FPS Standard : NTSC Color space : YUV Chroma subsampling : 4:2:0 Bit depth : 8 bits Scan type : Interlaced Scan order : Top Field First Compression mode : Lossy Bits/(Pixel*Frame) : 0.850 Time code of first frame : 00:59:59:00 Time code source : Group of pictures header Stream size : 2.81 GiB (98%) Original source medium : DVD-Video Audio ID : 2 ID in the original source medium : 189 (0xBD)128 (0x80) Format : AC-3 Format/Info : Audio Coding 3 Codec ID : A_AC3 Duration : 45 min 39 s Bit rate mode : Constant Bit rate : 192 kb/s Sampling rate : 48.0 kHz Bit depth : 16 bits Compression mode : Lossy Stream size : 62.7 MiB (2%) Title : Stereo Language : Japanese Service kind : Complete Main ```

File list