[Aparviel] DARLING in the FRANXX Vol.4 [1080p BDRemux]

Category:
Date:
2018-08-04 13:05 UTC
Submitter:
Seeders:
2
Information:
Leechers:
0
File size:
22.0 GiB
Completed:
76
Info hash:
bc334f7a7939764bb7e969b1cbc772e9848acc4d
### 4th Blu-ray volume of DARLING in the FRANXX #### ANZX-14447 --- ##### All episodes have second audio track with exclusive commentary --- ![alt text](https://i.imgur.com/UZlia67.jpg "") --- ### Info ``` General Complete name : D:\DARLING in the FRANXX Vol.4 [1080p BDRemux]\DARLING in the FRANXX - 10 [1080p BDRemux].mkv Format : Matroska Format version : Version 4 / Version 2 File size : 7.11 GiB Duration : 24 min 2 s Overall bit rate mode : Variable Overall bit rate : 42.3 Mb/s Movie name : DARLING in the FRANXX Vol.4 Writing application : mkvmerge v25.0.0 ('Prog Noir') 64-bit Writing library : libebml v1.3.6 + libmatroska v1.4.9 Video ID : 1 Codec ID : V_MPEG4/ISO/AVC Duration : 24 min 2 s Bit rate mode : Variable Bit rate : 37.7 Mb/s Maximum bit rate : 40.0 Mb/s Width : 1 920 pixels Height : 1 080 pixels Display aspect ratio : 16:9 Frame rate mode : Constant Frame rate : 23.976 (24000/1001) FPS Color space : YUV Chroma subsampling : 4:2:0 Bit depth : 8 bits Scan type : Progressive Bits/(Pixel*Frame) : 0.759 Stream size : 6.34 GiB (89%) Audio #1 ID : 2 Format : PCM Codec ID : A_PCM/INT/LIT Bit rate mode : Constant Bit rate : 2 304 kb/s Channel(s) : 2 channels Sampling rate : 48.0 kHz Bit depth : 24 bits Delay relative to video : 32 ms Stream size : 396 MiB (5%) Audio #2 ID : 3 Format : PCM Codec ID : A_PCM/INT/LIT Bit rate mode : Constant Bit rate : 2 304 kb/s Channel(s) : 2 channels Sampling rate : 48.0 kHz Bit depth : 24 bits Delay relative to video : 32 ms Stream size : 396 MiB (5%) ```

File list

  • DARLING in the FRANXX Vol.4 [1080p BDRemux]
    • Bonus
      • DARLING in the FRANXX - Ep 10 Preview.mkv (130.9 MiB)
      • DARLING in the FRANXX - Ep 11 Preview.mkv (130.8 MiB)
      • DARLING in the FRANXX - Ep 12 Preview.mkv (132.0 MiB)
      • Darling in the FranXX Vol.4 Menu.mkv (209.0 MiB)
      • IMG_0001.png (67.1 MiB)
      • IMG_0002.png (65.7 MiB)
    • DARLING in the FRANXX - 10 [1080p BDRemux].mkv (7.1 GiB)
    • DARLING in the FRANXX - 11 [1080p BDRemux].mkv (7.1 GiB)
    • DARLING in the FRANXX - 12 [1080p BDRemux].mkv (7.1 GiB)
Many thanks for your release. May I ask will you release the previous Volumes too?

Aparviel (uploader)

User
@USGrant I can do it in a few days if you need it)
@Aparviel please upload the previous volumes