[SCP-2223] Fate Apocrypha [Blu-ray 1080p h264 FLAC]

Category:
Date:
2018-07-30 14:32 UTC
Submitter:
Seeders:
1
Information:
Leechers:
0
File size:
29.5 GiB
Completed:
176
Info hash:
c4c95099e92fb0bd7a709cfafcc0ab786b0c6c55
Contains ReinForce raws with sync'd UTW softsubs. ``` General Unique ID : 150796346504741989520815614089027995782 (0x717251E6862717B9E98C8FD8AA914886) Complete name : [SCP-2223] Fate Apocrypha - 01 [Blu-ray 1080p h264 FLAC][B464D398].mkv Format : Matroska Format version : Version 4 / Version 2 File size : 1.26 GiB Duration : 23 min 47 s Overall bit rate mode : Variable Overall bit rate : 7 600 kb/s Movie name : [SCP-2223] Fate Apocrypha - 01 [Blu-ray 1080p h264 FLAC] Encoded date : UTC 2018-04-08 10:10:34 Writing application : mkvmerge v15.0.0 ('Duel with the Devil') 64-bit Writing library : libebml v1.3.5 + libmatroska v1.4.5 Attachments : IWAOMINPRO-BD-FATE.TTF / Profile-Medium.otf / Profile-MediumItalic.otf / FOT-MATISSEPRO-EB-TOARU.TTF Video ID : 1 Format : AVC Format/Info : Advanced Video Codec Format profile : High@L4 Format settings, CABAC : Yes Format settings, RefFrames : 4 frames Codec ID : V_MPEG4/ISO/AVC Duration : 23 min 47 s Bit rate : 6 148 kb/s Width : 1 920 pixels Height : 1 080 pixels Display aspect ratio : 16:9 Frame rate mode : Constant Frame rate : 23.976 (24000/1001) FPS Color space : YUV Chroma subsampling : 4:2:0 Bit depth : 8 bits Scan type : Progressive Bits/(Pixel*Frame) : 0.124 Stream size : 1.02 GiB (81%) Writing library : x264 core 152 Encoding settings : opencl=1 / cabac=1 / ref=4 / deblock=1:-2:-2 / analyse=0x3:0x113 / me=umh / subme=10 / psy=1 / psy_rd=0.70:0.00 / mixed_ref=0 / me_range=32 / chroma_me=1 / trellis=2 / 8x8dct=1 / cqm=0 / deadzone=21,11 / fast_pskip=1 / chroma_qp_offset=-2 / threads=8 / lookahead_threads=1 / sliced_threads=0 / nr=0 / decimate=1 / interlaced=0 / bluray_compat=0 / constrained_intra=0 / bframes=9 / b_pyramid=2 / b_adapt=2 / b_bias=0 / direct=3 / weightb=1 / open_gop=0 / weightp=2 / keyint=250 / keyint_min=23 / scenecut=40 / intra_refresh=0 / rc_lookahead=40 / rc=crf / mbtree=1 / crf=15.0 / qcomp=0.70 / qpmin=10 / qpmax=20 / qpstep=4 / ip_ratio=1.40 / aq=1:1.00 Default : Yes Forced : No Audio ID : 2 Format : FLAC Format/Info : Free Lossless Audio Codec Codec ID : A_FLAC Duration : 23 min 47 s Bit rate mode : Variable Bit rate : 1 443 kb/s Channel(s) : 2 channels Channel positions : Front: L R Sampling rate : 48.0 kHz Frame rate : 10.417 FPS (4608 SPF) Bit depth : 24 bits Stream size : 245 MiB (19%) Writing library : Lavf57.83.100 Language : Japanese Default : Yes Forced : No Text ID : 3 Format : ASS Codec ID : S_TEXT/ASS Codec ID/Info : Advanced Sub Station Alpha Duration : 23 min 23 s Bit rate : 160 b/s Count of elements : 335 Compression mode : Lossless Stream size : 27.5 KiB (0%) Title : UTW Language : English Default : Yes Forced : No Menu 00:00:00.033 : en:Prologue 00:04:13.980 : en:Main 00:21:38.900 : en:Ending 00:23:13.870 : en:Preview ```

File list

  • [SCP-2223] Fate Apocrypha [Blu-ray 1080p h264 FLAC]
    • [SCP-2223] Fate Apocrypha - 01 [Blu-ray 1080p h264 FLAC][B464D398].mkv (1.3 GiB)
    • [SCP-2223] Fate Apocrypha - 02 [Blu-ray 1080p h264 FLAC][CE7E0471].mkv (1.1 GiB)
    • [SCP-2223] Fate Apocrypha - 03 [Blu-ray 1080p h264 FLAC][D3685860].mkv (1.1 GiB)
    • [SCP-2223] Fate Apocrypha - 04 [Blu-ray 1080p h264 FLAC][31907793].mkv (1.3 GiB)
    • [SCP-2223] Fate Apocrypha - 05 [Blu-ray 1080p h264 FLAC][BAE9B429].mkv (1.0 GiB)
    • [SCP-2223] Fate Apocrypha - 06 [Blu-ray 1080p h264 FLAC][D07C3803].mkv (1.1 GiB)
    • [SCP-2223] Fate Apocrypha - 07 [Blu-ray 1080p h264 FLAC][C69B46E4].mkv (1.1 GiB)
    • [SCP-2223] Fate Apocrypha - 08 [Blu-ray 1080p h264 FLAC][CDA2CE8E].mkv (1.3 GiB)
    • [SCP-2223] Fate Apocrypha - 09 [Blu-ray 1080p h264 FLAC][911C948C].mkv (1.5 GiB)
    • [SCP-2223] Fate Apocrypha - 10 [Blu-ray 1080p h264 FLAC][F477924F].mkv (1.3 GiB)
    • [SCP-2223] Fate Apocrypha - 11 [Blu-ray 1080p h264 FLAC][001A5F70].mkv (1.3 GiB)
    • [SCP-2223] Fate Apocrypha - 12 [Blu-ray 1080p h264 FLAC][7118D02C].mkv (1.2 GiB)
    • [SCP-2223] Fate Apocrypha - 13 [Blu-ray 1080p h264 FLAC][7397A610].mkv (1.3 GiB)
    • [SCP-2223] Fate Apocrypha - 14 [Blu-ray 1080p h264 FLAC][168BDD15].mkv (1.2 GiB)
    • [SCP-2223] Fate Apocrypha - 15 [Blu-ray 1080p h264 FLAC][206E4E35].mkv (978.2 MiB)
    • [SCP-2223] Fate Apocrypha - 16 [Blu-ray 1080p h264 FLAC][D959B274].mkv (1.0 GiB)
    • [SCP-2223] Fate Apocrypha - 17 [Blu-ray 1080p h264 FLAC][93A47A4F].mkv (1.0 GiB)
    • [SCP-2223] Fate Apocrypha - 18 [Blu-ray 1080p h264 FLAC][B16F8870].mkv (1.1 GiB)
    • [SCP-2223] Fate Apocrypha - 19 [Blu-ray 1080p h264 FLAC][562B2B40].mkv (992.6 MiB)
    • [SCP-2223] Fate Apocrypha - 20 [Blu-ray 1080p h264 FLAC][45598A52].mkv (1.1 GiB)
    • [SCP-2223] Fate Apocrypha - 21 [Blu-ray 1080p h264 FLAC][E3E17F29].mkv (1.2 GiB)
    • [SCP-2223] Fate Apocrypha - 22 [Blu-ray 1080p h264 FLAC][5EAE33C9].mkv (1.5 GiB)
    • [SCP-2223] Fate Apocrypha - 23 [Blu-ray 1080p h264 FLAC][14C79455].mkv (1.2 GiB)
    • [SCP-2223] Fate Apocrypha - 24 [Blu-ray 1080p h264 FLAC][4ED1B5BA].mkv (1.2 GiB)
    • [SCP-2223] Fate Apocrypha - 25 [Blu-ray 1080p h264 FLAC][8B3F804B].mkv (1.1 GiB)
Would've been better with Beatrice-Raws, but I guess [AC] already did that. Thanks though!

DataHoarder (uploader)

User
This had been done back in May, so AC wasn't out by that point. It just had sit in private trackers all this time. > Encoded date : UTC 2018-04-08 10:10:34
Would you mind doing Berserk season 2?
Why not use the Netflix subs? UTW has a ton of issues that I've documented like missing a line and a ton of typos. I hope these have been resolved? If not it's probably better to just use the Netflix subs.