[SCP-2223] Ryuuou no Oshigoto! [Blu-ray 1080p h264 FLAC]

Category:
Date:
2018-07-30 03:01 UTC
Submitter:
Seeders:
5
Information:
Leechers:
0
File size:
14.5 GiB
Completed:
1582
Info hash:
e3f3d0abe6c9708ec11ae61d58dac70edbff26c1
Contains ReinForce raws with sync'd CR softsubs. ``` General Unique ID : 167244699479941732405268732788400608216 (0x7DD2285067113B31731506101FD253D8) Complete name : [SCP-2223] Ryuuou no Oshigoto! - 01 [Blu-ray 1080p h264 FLAC][8F40E834].mkv Format : Matroska Format version : Version 4 / Version 2 File size : 1.15 GiB Duration : 24 min 32 s Overall bit rate mode : Variable Overall bit rate : 6 715 kb/s Movie name : [SCP-2223] Ryuuou no Oshigoto! - 01 [Blu-ray 1080p h264 FLAC] Encoded date : UTC 2018-06-30 16:10:19 Writing application : mkvmerge v19.0.0 ('Brave Captain') 64-bit Writing library : libebml v1.3.5 + libmatroska v1.4.8 Attachments : OpenSans-Semibold.ttf Video ID : 1 Format : AVC Format/Info : Advanced Video Codec Format profile : High@L4 Format settings : CABAC / 4 Ref Frames Format settings, CABAC : Yes Format settings, ReFrames : 4 frames Codec ID : V_MPEG4/ISO/AVC Duration : 24 min 32 s Bit rate : 5 290 kb/s Width : 1 920 pixels Height : 1 080 pixels Display aspect ratio : 16:9 Frame rate mode : Constant Frame rate : 23.976 (24000/1001) FPS Color space : YUV Chroma subsampling : 4:2:0 Bit depth : 8 bits Scan type : Progressive Bits/(Pixel*Frame) : 0.106 Stream size : 929 MiB (79%) Writing library : x264 core 152 Encoding settings : opencl=1 / cabac=1 / ref=4 / deblock=1:-2:-2 / analyse=0x3:0x113 / me=umh / subme=9 / psy=1 / psy_rd=0.70:0.00 / mixed_ref=0 / me_range=32 / chroma_me=1 / trellis=2 / 8x8dct=1 / cqm=0 / deadzone=21,11 / fast_pskip=1 / chroma_qp_offset=-2 / threads=8 / lookahead_threads=1 / sliced_threads=0 / nr=0 / decimate=1 / interlaced=0 / bluray_compat=0 / constrained_intra=0 / bframes=9 / b_pyramid=2 / b_adapt=2 / b_bias=0 / direct=3 / weightb=1 / open_gop=0 / weightp=2 / keyint=250 / keyint_min=23 / scenecut=40 / intra_refresh=0 / rc_lookahead=40 / rc=crf / mbtree=1 / crf=16.0 / qcomp=0.70 / qpmin=10 / qpmax=20 / qpstep=4 / ip_ratio=1.40 / aq=1:1.00 Default : Yes Forced : No Audio ID : 2 Format : FLAC Format/Info : Free Lossless Audio Codec Codec ID : A_FLAC Duration : 24 min 32 s Bit rate mode : Variable Bit rate : 1 421 kb/s Channel(s) : 2 channels Channel positions : Front: L R Sampling rate : 48.0 kHz Frame rate : 10.417 FPS (4608 SPF) Bit depth : 24 bits Stream size : 250 MiB (21%) Writing library : Lavf57.83.100 Language : Japanese Default : Yes Forced : No Text ID : 3 Format : ASS Codec ID : S_TEXT/ASS Codec ID/Info : Advanced Sub Station Alpha Duration : 22 min 37 s Bit rate : 153 b/s Count of elements : 367 Compression mode : Lossless Stream size : 25.5 KiB (0%) Title : CR Language : English Default : Yes Forced : No ```

File list

  • [SCP-2223] Ryuuou no Oshigoto! [Blu-ray 1080p h264 FLAC]
    • [SCP-2223] Ryuuou no Oshigoto! - 01 [Blu-ray 1080p h264 FLAC][8F40E834].mkv (1.2 GiB)
    • [SCP-2223] Ryuuou no Oshigoto! - 02 [Blu-ray 1080p h264 FLAC][AD33D70A].mkv (1.1 GiB)
    • [SCP-2223] Ryuuou no Oshigoto! - 03 [Blu-ray 1080p h264 FLAC][1EAFE6CA].mkv (1.2 GiB)
    • [SCP-2223] Ryuuou no Oshigoto! - 04 [Blu-ray 1080p h264 FLAC][E1938F3F].mkv (1.2 GiB)
    • [SCP-2223] Ryuuou no Oshigoto! - 05 [Blu-ray 1080p h264 FLAC][578FB2D2].mkv (1.1 GiB)
    • [SCP-2223] Ryuuou no Oshigoto! - 06 [Blu-ray 1080p h264 FLAC][7A1AB887].mkv (1.2 GiB)
    • [SCP-2223] Ryuuou no Oshigoto! - 07 [Blu-ray 1080p h264 FLAC][090CBB94].mkv (1.2 GiB)
    • [SCP-2223] Ryuuou no Oshigoto! - 08 [Blu-ray 1080p h264 FLAC][044FEC6D].mkv (1.2 GiB)
    • [SCP-2223] Ryuuou no Oshigoto! - 09 [Blu-ray 1080p h264 FLAC][9D78CEDF].mkv (1.2 GiB)
    • [SCP-2223] Ryuuou no Oshigoto! - 10 [Blu-ray 1080p h264 FLAC][14D027A0].mkv (1.4 GiB)
    • [SCP-2223] Ryuuou no Oshigoto! - 11 [Blu-ray 1080p h264 FLAC][CB59B289].mkv (1.4 GiB)
    • [SCP-2223] Ryuuou no Oshigoto! - 12 [Blu-ray 1080p h264 FLAC][0639C3BB].mkv (1.2 GiB)
Can you upload Kabaneri of the Iron Fortress BD?

DataHoarder (uploader)

User
Here you have a better release than what I could provide: https://nyaa.si/view/1013304
can you upload uq holder as BD is out there for a long time but no one have uploaded any source.