[SCP-2223] Kumamiko [Blu-ray 1080p h264 FLAC]

Category:
Date:
2018-07-30 02:41 UTC
Submitter:
Seeders:
2
Information:
Leechers:
0
File size:
10.0 GiB
Completed:
242
Info hash:
b667b82fd139eaf39378b2e6febb7729481f1d5b
Contains Pussub raws with sync'd Merchant softsubs. ``` General Unique ID : 174316321452408480249400735873190966463 (0x83241A322C01B9BB21B1111AFE91B4BF) Complete name : [SCP-2223] Kumamiko - 01 [Blu-ray 1080p h264 FLAC][49C33417].mkv Format : Matroska Format version : Version 4 / Version 2 File size : 877 MiB Duration : 23 min 56 s Overall bit rate mode : Variable Overall bit rate : 5 124 kb/s Movie name : [SCP-2223] Kumamiko - 01 [Blu-ray 1080p h264 FLAC] Encoded date : UTC 2018-03-27 18:14:28 Writing application : mkvmerge v15.0.0 ('Duel with the Devil') 64-bit Writing library : libebml v1.3.5 + libmatroska v1.4.5 Video ID : 1 Format : AVC Format/Info : Advanced Video Codec Format profile : High 10@L4.1 Format settings, CABAC : Yes Format settings, RefFrames : 4 frames Codec ID : V_MPEG4/ISO/AVC Duration : 23 min 56 s Bit rate : 4 264 kb/s Width : 1 920 pixels Height : 1 080 pixels Display aspect ratio : 16:9 Frame rate mode : Constant Frame rate : 23.976 (24000/1001) FPS Color space : YUV Chroma subsampling : 4:2:0 Bit depth : 10 bits Scan type : Progressive Bits/(Pixel*Frame) : 0.086 Stream size : 730 MiB (83%) Writing library : x264 core 148 r2665 a01e339 Encoding settings : cabac=1 / ref=4 / deblock=1:0:0 / analyse=0x3:0x133 / me=tesa / subme=11 / psy=1 / psy_rd=0.70:0.00 / mixed_ref=1 / me_range=64 / chroma_me=1 / trellis=2 / 8x8dct=1 / cqm=0 / deadzone=21,11 / fast_pskip=0 / chroma_qp_offset=-2 / threads=34 / lookahead_threads=5 / sliced_threads=0 / nr=0 / decimate=0 / interlaced=0 / bluray_compat=0 / constrained_intra=0 / bframes=9 / b_pyramid=2 / b_adapt=2 / b_bias=0 / direct=3 / weightb=1 / open_gop=0 / weightp=2 / keyint=240 / keyint_min=23 / scenecut=40 / intra_refresh=0 / rc_lookahead=60 / rc=crf / mbtree=1 / crf=16.0 / qcomp=0.80 / qpmin=0 / qpmax=51 / qpstep=4 / ip_ratio=1.40 / aq=1:0.80 Default : Yes Forced : No Audio ID : 2 Format : FLAC Format/Info : Free Lossless Audio Codec Codec ID : A_FLAC Duration : 23 min 56 s Bit rate mode : Variable Bit rate : 857 kb/s Channel(s) : 2 channels Channel positions : Front: L R Sampling rate : 48.0 kHz Frame rate : 41.667 FPS (1152 SPF) Bit depth : 16 bits Stream size : 147 MiB (17%) Writing library : libFLAC 1.3.1 (UTC 2014-11-25) Default : Yes Forced : No Text ID : 3 Format : ASS Codec ID : S_TEXT/ASS Codec ID/Info : Advanced Sub Station Alpha Duration : 23 min 27 s Bit rate : 121 b/s Count of elements : 408 Compression mode : Lossless Stream size : 20.9 KiB (0%) Title : Merchant Language : English Default : Yes Forced : No ```

File list

  • [SCP-2223] Kumamiko [Blu-ray 1080p h264 FLAC]
    • [SCP-2223] Kumamiko - 01 [Blu-ray 1080p h264 FLAC][49C33417].mkv (877.2 MiB)
    • [SCP-2223] Kumamiko - 02 [Blu-ray 1080p h264 FLAC][CB6FCB3A].mkv (811.2 MiB)
    • [SCP-2223] Kumamiko - 03 [Blu-ray 1080p h264 FLAC][F3343273].mkv (953.5 MiB)
    • [SCP-2223] Kumamiko - 04 [Blu-ray 1080p h264 FLAC][FADCE0C6].mkv (841.7 MiB)
    • [SCP-2223] Kumamiko - 05 [Blu-ray 1080p h264 FLAC][E6D910EB].mkv (834.5 MiB)
    • [SCP-2223] Kumamiko - 06 [Blu-ray 1080p h264 FLAC][37E2F71B].mkv (864.4 MiB)
    • [SCP-2223] Kumamiko - 07 [Blu-ray 1080p h264 FLAC][E7526728].mkv (772.3 MiB)
    • [SCP-2223] Kumamiko - 08 [Blu-ray 1080p h264 FLAC][9EF393B6].mkv (974.6 MiB)
    • [SCP-2223] Kumamiko - 09 [Blu-ray 1080p h264 FLAC][353304D8].mkv (828.8 MiB)
    • [SCP-2223] Kumamiko - 10 [Blu-ray 1080p h264 FLAC][0CF43D46].mkv (845.8 MiB)
    • [SCP-2223] Kumamiko - 11 [Blu-ray 1080p h264 FLAC][01431417].mkv (863.4 MiB)
    • [SCP-2223] Kumamiko - 12 [Blu-ray 1080p h264 FLAC][4B0299A8].mkv (814.9 MiB)
ep 12 07:37 and further - lines get messed up. also chapters are not correct. pls fix!
Yeah looks like a typical issue with Sushi. The output should've been checked over, not too hard to fix.
I fixed the subtitles, https://my.mixtape.moe/npsxwi.7z the BD is missing a few lines that are in the TV release which obviously confused sushi leading to the issue. Sushi does output a lot of errors in this instance though, so not sure how it was overlooked.