[SCP-2223] Hand Shakers [Blu-ray 1080p h264-10bit AAC]

Category:
Date:
2018-07-30 02:16 UTC
Submitter:
Seeders:
2
Information:
Leechers:
0
File size:
22.2 GiB
Completed:
340
Info hash:
af88c2cc6f6c03f9a300469156fd4772ed0c99bb
Contains Kuusou raws with Dekinai/CR sync'd subs. ``` General Unique ID : 225660484205569486292207274051540029242 (0xA9C4A0DD7CFFCB5BD9B42BE008030F3A) Complete name : [SCP-2223] Hand Shakers - 01 [Blu-ray 1080p h264-10bit AAC][0726E97B].mkv Format : Matroska Format version : Version 4 / Version 2 File size : 2.08 GiB Duration : 23 min 40 s Overall bit rate : 12.6 Mb/s Movie name : [SCP-2223] Hand Shakers - 01 [Blu-ray 1080p h264-10bit AAC] Encoded date : UTC 2018-03-27 16:58:53 Writing application : mkvmerge v15.0.0 ('Duel with the Devil') 64-bit Writing library : libebml v1.3.5 + libmatroska v1.4.5 Attachments : consola.ttf / ElektraLight.otf / EmilysHand Regular.ttf / Facile Sans.ttf / GearsOfPeace.ttf / GelPen.ttf / GillSansStd-Bold.otf / GosmickSans.ttf / handwritten_crystal_v2.ttf / LEHN049.TTF / OpenSans-Semibold.ttf / Prototype.ttf / VAG Rounded Black SSi Bold.ttf / VAGRounded Lt-Normal.TTF / arialbd.ttf / ARTIFICESSK_0-ALE3X.TTF / Brush Strokes.ttf / CartoonDemiBold.ttf / City Life.ttf / CommieSans-Medium.ttf / ITC Goudy Sans LT Bold Italic.ttf / itc_goudy_sans--lte52939.ttf / LEHN049.TTF / Casper Bold.ttf / CASTELAR.TTF / DEATH_FONT.TTF / GearsOfPeace.ttf Video ID : 1 Format : AVC Format/Info : Advanced Video Codec Format profile : High 10@L5.1 Format settings, CABAC : Yes Format settings, RefFrames : 16 frames Codec ID : V_MPEG4/ISO/AVC Duration : 23 min 11 s Bit rate : 12.5 Mb/s Width : 1 920 pixels Height : 1 080 pixels Display aspect ratio : 16:9 Frame rate mode : Constant Frame rate : 29.970 (30000/1001) FPS Color space : YUV Chroma subsampling : 4:2:0 Bit depth : 10 bits Scan type : Progressive Bits/(Pixel*Frame) : 0.202 Stream size : 2.03 GiB (98%) Writing library : x264 core 148 r2762+56 7979737 t_mod_Custom [10-bit@all X86_64] Encoding settings : cabac=1 / ref=16 / deblock=1:-1:-1 / analyse=0x3:0x133 / me=tesa / subme=10 / psy=1 / fade_compensate=0.50 / psy_rd=0.85:0.00 / mixed_ref=1 / me_range=48 / chroma_me=1 / trellis=2 / 8x8dct=1 / cqm=0 / deadzone=21,11 / fast_pskip=1 / chroma_qp_offset=-2 / threads=12 / lookahead_threads=3 / sliced_threads=0 / nr=0 / decimate=1 / interlaced=0 / bluray_compat=0 / constrained_intra=0 / fgo=0 / bframes=16 / b_pyramid=2 / b_adapt=2 / b_bias=0 / direct=3 / weightb=1 / open_gop=0 / weightp=2 / keyint=250 / keyint_min=25 / scenecut=40 / intra_refresh=0 / rc_lookahead=60 / rc=crf / mbtree=1 / crf=16.0000 / qcomp=0.65 / qpmin=0:0:0 / qpmax=81:81:81 / qpstep=4 / ip_ratio=1.40 / aq=3:0.77 / aq-sensitivity=10.00 / aq-factor=1.00:1.00:1.00 / aq2=0 / aq3=0 Language : English Default : Yes Forced : No Color range : Limited Matrix coefficients : BT.709 Audio ID : 2 Format : AAC Format/Info : Advanced Audio Codec Format profile : LC Codec ID : A_AAC Duration : 23 min 12 s Bit rate : 296 kb/s Channel(s) : 2 channels Channel positions : Front: L R Sampling rate : 48.0 kHz Frame rate : 46.875 FPS (1024 SPF) Compression mode : Lossy Delay relative to video : 20 ms Stream size : 49.2 MiB (2%) Language : Japanese Default : Yes Forced : No Text ID : 3 Format : ASS Codec ID : S_TEXT/ASS Codec ID/Info : Advanced Sub Station Alpha Duration : 23 min 37 s Bit rate : 271 b/s Count of elements : 587 Compression mode : Lossless Stream size : 47.0 KiB (0%) Title : Dekinai/CR Language : English Default : Yes Forced : No Menu 00:00:00.000 : :Prologue 00:04:12.140 : :A-Part 00:13:09.350 : :B-Part 00:23:09.950 : :Preview ```

File list

  • [SCP-2223] Hand Shakers [Blu-ray 1080p h264-10bit AAC]
    • [SCP-2223] Hand Shakers - 01 [Blu-ray 1080p h264-10bit AAC][0726E97B].mkv (2.1 GiB)
    • [SCP-2223] Hand Shakers - 02 [Blu-ray 1080p h264-10bit AAC][4CC5D7AF].mkv (1.6 GiB)
    • [SCP-2223] Hand Shakers - 03 [Blu-ray 1080p h264-10bit AAC][CB41011D].mkv (1.7 GiB)
    • [SCP-2223] Hand Shakers - 04 [Blu-ray 1080p h264-10bit AAC][2F6C8496].mkv (2.0 GiB)
    • [SCP-2223] Hand Shakers - 05 [Blu-ray 1080p h264-10bit AAC][6416A75D].mkv (1.6 GiB)
    • [SCP-2223] Hand Shakers - 06 [Blu-ray 1080p h264-10bit AAC][BDB9E5E0].mkv (2.3 GiB)
    • [SCP-2223] Hand Shakers - 07 [Blu-ray 1080p h264-10bit AAC][78BB0D89].mkv (1.5 GiB)
    • [SCP-2223] Hand Shakers - 08 [Blu-ray 1080p h264-10bit AAC][938BCA4A].mkv (2.0 GiB)
    • [SCP-2223] Hand Shakers - 09 [Blu-ray 1080p h264-10bit AAC][076E07D9].mkv (2.1 GiB)
    • [SCP-2223] Hand Shakers - 10 [Blu-ray 1080p h264-10bit AAC][B733F437].mkv (1.5 GiB)
    • [SCP-2223] Hand Shakers - 11 [Blu-ray 1080p h264-10bit AAC][0AE1B2D9].mkv (1.6 GiB)
    • [SCP-2223] Hand Shakers - 12 [Blu-ray 1080p h264-10bit AAC][2AE55A37].mkv (2.2 GiB)