[SCP-2223] Sakura Quest [Blu-ray 1080p h265-10bit FLAC]

Category:
Date:
2018-07-30 01:56 UTC
Submitter:
Seeders:
1
Information:
Leechers:
0
File size:
15.7 GiB
Completed:
462
Info hash:
09ff6ab48dbe201b2d08260fe19342352b2d007a
Contains VCB-Studio raws with Nii-sama subtitles resync'd. Some of the episodes contain Japanese commentary tracks. From Nii-Sama: > Restyled > Reformatted (no more “- -” !) > Heavily delocalized (in some places completely retranslated) CR subs (no more monkeys, yoshis, “peaches”, gals, and other crap) > Added honorifics > Japanese name order (+surnames instead names, “Pres/President” instead names etc) > Added karaoke (lyrical nonsense) > Basic typesetting > Added full romanization From VCB-Studio: > The image of BD source is quite soft, without a distinct clarity in textural details. There is no large artifact except slight banding and aliasing in some area. PP: slight pertinent debanding and AA, textural enhancement (for soft planar details), and adaptive denoising (for insensible noise in bright area). ``` General Unique ID : 148277079762037459939521714466259785745 (0x6F8D2075D5704A04E59C6D46B544D811) Complete name : [SCP-2223] Sakura Quest - 01 [Blu-ray 1080p h265-10bit FLAC][DE51FF8C].mkv Format : Matroska Format version : Version 4 / Version 2 File size : 627 MiB Duration : 23 min 52 s Overall bit rate mode : Variable Overall bit rate : 3 669 kb/s Movie name : [SCP-2223] Sakura Quest - 01 [Blu-ray 1080p h265-10bit FLAC] Encoded date : UTC 2018-03-29 18:20:39 Writing application : mkvmerge v15.0.0 ('Duel with the Devil') 64-bit Writing library : libebml v1.3.5 + libmatroska v1.4.5 Attachments : BROADW.TTF / BSSYM7.TTF / ebrima.ttf / Garibaldi-Medium.otf / Gotham Bold Regular.ttf / GraviolaSoft-Medium.otf / irohamaru-mikami-Regular.ttf / ITCKRIST.TTF / Monoglyceride.ttf / Perisphere.ttf / rounded-x-mplus-2c-heavy.ttf / tt0035m_.ttf / tt0524m_.ttf / AnjaEliane.ttf / BAUHS93.TTF / Bemio.otf / OpenSans-Semibold.ttf Video ID : 1 Format : HEVC Format/Info : High Efficiency Video Coding Format profile : Main 10@L4.1@High Codec ID : V_MPEGH/ISO/HEVC Duration : 23 min 52 s Bit rate : 2 908 kb/s Width : 1 920 pixels Height : 1 080 pixels Display aspect ratio : 16:9 Frame rate mode : Constant Frame rate : 23.976 (24000/1001) FPS Color space : YUV Chroma subsampling : 4:2:0 Bit depth : 10 bits Bits/(Pixel*Frame) : 0.059 Stream size : 497 MiB (79%) Writing library : x265 2.0+2-6e301b63952b:[Windows][MSVC 1900][64 bit] 10bit Encoding settings : wpp / ctu=32 / min-cu-size=8 / max-tu-size=32 / tu-intra-depth=2 / tu-inter-depth=2 / me=3 / subme=3 / merange=44 / no-rect / no-amp / max-merge=3 / temporal-mvp / no-early-skip / rskip / rdpenalty=0 / no-tskip / no-tskip-fast / no-strong-intra-smoothing / no-lossless / no-cu-lossless / no-constrained-intra / no-fast-intra / no-open-gop / no-temporal-layers / interlace=0 / keyint=360 / min-keyint=1 / scenecut=40 / rc-lookahead=80 / lookahead-slices=4 / bframes=6 / bframe-bias=0 / b-adapt=2 / ref=4 / limit-refs=2 / limit-modes / weightp / weightb / aq-mode=1 / qg-size=16 / aq-strength=0.90 / cbqpoffs=-3 / crqpoffs=-3 / rd=4 / psy-rd=2.00 / rdoq-level=2 / psy-rdoq=3.00 / no-rd-refine / signhide / deblock=-1:-1 / no-sao / no-sao-non-deblock / b-pyramid / cutree / no-intra-refresh / rc=crf / crf=15.5 / qcomp=0.70 / qpmin=0 / qpmax=51 / qpstep=4 / vbv-maxrate=35000 / vbv-bufsize=40000 / crf-max=0.0 / ipratio=1.40 / pbratio=1.20 Default : Yes Forced : No Color range : Limited Matrix coefficients : BT.709 Audio ID : 2 Format : FLAC Format/Info : Free Lossless Audio Codec Codec ID : A_FLAC Duration : 23 min 52 s Bit rate mode : Variable Bit rate : 710 kb/s Channel(s) : 2 channels Channel positions : Front: L R Sampling rate : 48.0 kHz Frame rate : 11.719 FPS (4096 SPF) Bit depth : 16 bits Stream size : 121 MiB (19%) Writing library : libFLAC 1.3.2 (UTC 2017-01-01) Language : Japanese Default : Yes Forced : No Text ID : 3 Format : ASS Codec ID : S_TEXT/ASS Codec ID/Info : Advanced Sub Station Alpha Duration : 23 min 45 s Bit rate : 162 b/s Count of elements : 382 Compression mode : Lossless Stream size : 28.3 KiB (0%) Title : Nii-sama Language : English Default : Yes Forced : No ```

File list

  • [SCP-2223] Sakura Quest [Blu-ray 1080p h265-10bit FLAC]
    • [SCP-2223] Sakura Quest - 01 [Blu-ray 1080p h265-10bit FLAC][DE51FF8C].mkv (626.5 MiB)
    • [SCP-2223] Sakura Quest - 02 [Blu-ray 1080p h265-10bit FLAC][8E57EEE3].mkv (656.4 MiB)
    • [SCP-2223] Sakura Quest - 03 [Blu-ray 1080p h265-10bit FLAC][9B47065B].mkv (694.3 MiB)
    • [SCP-2223] Sakura Quest - 04 [Blu-ray 1080p h265-10bit FLAC][2D3FBC44].mkv (664.6 MiB)
    • [SCP-2223] Sakura Quest - 05 [Blu-ray 1080p h265-10bit FLAC][F6590FBD].mkv (642.3 MiB)
    • [SCP-2223] Sakura Quest - 06 [Blu-ray 1080p h265-10bit FLAC][A3227F87].mkv (654.4 MiB)
    • [SCP-2223] Sakura Quest - 07 [Blu-ray 1080p h265-10bit FLAC][BB1C9788].mkv (731.3 MiB)
    • [SCP-2223] Sakura Quest - 08 [Blu-ray 1080p h265-10bit FLAC][E59E1699].mkv (607.2 MiB)
    • [SCP-2223] Sakura Quest - 09 [Blu-ray 1080p h265-10bit FLAC][61EADB08].mkv (644.3 MiB)
    • [SCP-2223] Sakura Quest - 10 [Blu-ray 1080p h265-10bit FLAC][D419C461].mkv (673.0 MiB)
    • [SCP-2223] Sakura Quest - 11 [Blu-ray 1080p h265-10bit FLAC][2FED1781].mkv (711.8 MiB)
    • [SCP-2223] Sakura Quest - 12 [Blu-ray 1080p h265-10bit FLAC][E63EB4AB].mkv (626.6 MiB)
    • [SCP-2223] Sakura Quest - 13 [Blu-ray 1080p h265-10bit FLAC][4E95D0F1].mkv (764.9 MiB)
    • [SCP-2223] Sakura Quest - 14 [Blu-ray 1080p h265-10bit FLAC][6E08D8CC].mkv (619.3 MiB)
    • [SCP-2223] Sakura Quest - 15 [Blu-ray 1080p h265-10bit FLAC][074061DF].mkv (633.2 MiB)
    • [SCP-2223] Sakura Quest - 16 [Blu-ray 1080p h265-10bit FLAC][26AC39CB].mkv (604.0 MiB)
    • [SCP-2223] Sakura Quest - 17 [Blu-ray 1080p h265-10bit FLAC][397CB2C5].mkv (532.7 MiB)
    • [SCP-2223] Sakura Quest - 18 [Blu-ray 1080p h265-10bit FLAC][4DB57C3E].mkv (557.4 MiB)
    • [SCP-2223] Sakura Quest - 19 [Blu-ray 1080p h265-10bit FLAC][1F2AF950].mkv (625.1 MiB)
    • [SCP-2223] Sakura Quest - 20 [Blu-ray 1080p h265-10bit FLAC][25E6A327].mkv (614.3 MiB)
    • [SCP-2223] Sakura Quest - 21 [Blu-ray 1080p h265-10bit FLAC][D463C84A].mkv (581.5 MiB)
    • [SCP-2223] Sakura Quest - 22 [Blu-ray 1080p h265-10bit FLAC][882A05BB].mkv (672.9 MiB)
    • [SCP-2223] Sakura Quest - 23 [Blu-ray 1080p h265-10bit FLAC][196AC6DD].mkv (519.0 MiB)
    • [SCP-2223] Sakura Quest - 24 [Blu-ray 1080p h265-10bit FLAC][4B563B81].mkv (724.9 MiB)
    • [SCP-2223] Sakura Quest - 25 [Blu-ray 1080p h265-10bit FLAC][F8E0E469].mkv (689.5 MiB)
Thank you, as well for keeping this one alive! <3