[SCP-2223] Blend S [Blu-ray 1080p h264 FLAC]

Category:
Date:
2018-07-30 01:15 UTC
Submitter:
Seeders:
14
Information:
Leechers:
1
File size:
14.9 GiB
Completed:
2065
Info hash:
688227d205cbc8bd99287e919998eff52132218b
Contains ReinForce raws with sync'd Nii-sama softsubs. ``` General Unique ID : 220429636518252239031722515355767842738 (0xA5D534299F092027EA7CC8005DCAA7B2) Complete name : [SCP-2223] Blend S - 01 [Blu-ray 1080p h264 FLAC][F989CEB0].mkv Format : Matroska Format version : Version 4 / Version 2 File size : 1.28 GiB Duration : 26 min 13 s Overall bit rate mode : Variable Overall bit rate : 7 007 kb/s Movie name : [SCP-2223] Blend S - 01 [Blu-ray 1080p h264 FLAC] Encoded date : UTC 2018-06-28 08:53:14 Writing application : mkvmerge v19.0.0 ('Brave Captain') 64-bit Writing library : libebml v1.3.5 + libmatroska v1.4.8 Attachments : Amira-Black.ttf / AnjaEliane.ttf / badankadonk.ttf / BAUHS93.TTF / BERNHC.TTF / BILLBH_.TTF / BRLNSB.TTF / Bungasai.ttf / calibril.ttf / Chalk Dash.ttf / ChalkDust.ttf / CM Big Fat Paintbrush.ttf / CMBigFatPaintbrush.ttf / COOPBL.TTF / deathrattlebb_reg.ttf / DFBrushRD-W7-WIN-RKSJ-H.ttf / DFBrushRD-W7-WING-RKSJ-H.ttf / DFBrushRD-W7-WINP-RKSJ-H.ttf / EASPORTS15.ttf / ElegantLux-Mager.ttf / GlamourGirl.ttf / HoboStd.ttf / ianfont.ttf / irohamaru-mikami-Regular.ttf / MISTRAL.TTF / Monoglyceride.ttf / MS-Gothic.ttf / MS-PGothic.ttf / MS-UIGothic.ttf / MyriadPro-Bold.ttf / Perisphere.ttf / Pixel_Berry_08_84_Ltd_Edition.TTF / radgranny.ttf / rounded-x-mplus-2c-heavy.ttf / secondbreakfast.ttf / SHOWG.TTF / Sin City.ttf / SNAP____.TTF / tt0010m_.ttf / tt0586m_.ttf / tt0627m_.ttf / tt0628m_.ttf / tt1018m_.ttf / DFGBrushRD-W7_0.ttc / amira-black-opentype.otf / BrushScriptStd.otf / ElegantLux-Mager.OTF / GraviolaSoft-Medium.otf / HoboStd.otf / LeagueGothic-Regular.otf / MyriadPro-Bold.otf / PoplarStd.otf / TektonPro-Bold.otf Video ID : 1 Format : AVC Format/Info : Advanced Video Codec Format profile : High@L4 Format settings : CABAC / 4 Ref Frames Format settings, CABAC : Yes Format settings, ReFrames : 4 frames Codec ID : V_MPEG4/ISO/AVC Duration : 23 min 41 s Bit rate : 6 095 kb/s Width : 1 920 pixels Height : 1 080 pixels Display aspect ratio : 16:9 Frame rate mode : Constant Frame rate : 23.976 (24000/1001) FPS Color space : YUV Chroma subsampling : 4:2:0 Bit depth : 8 bits Scan type : Progressive Bits/(Pixel*Frame) : 0.123 Stream size : 1.01 GiB (79%) Writing library : x264 core 152 Encoding settings : opencl=1 / cabac=1 / ref=4 / deblock=1:-2:-2 / analyse=0x3:0x113 / me=umh / subme=9 / psy=1 / psy_rd=0.70:0.00 / mixed_ref=0 / me_range=32 / chroma_me=1 / trellis=2 / 8x8dct=1 / cqm=0 / deadzone=21,11 / fast_pskip=1 / chroma_qp_offset=-2 / threads=8 / lookahead_threads=1 / sliced_threads=0 / nr=0 / decimate=1 / interlaced=0 / bluray_compat=0 / constrained_intra=0 / bframes=9 / b_pyramid=2 / b_adapt=2 / b_bias=0 / direct=3 / weightb=1 / open_gop=0 / weightp=2 / keyint=250 / keyint_min=23 / scenecut=40 / intra_refresh=0 / rc_lookahead=40 / rc=crf / mbtree=1 / crf=16.0 / qcomp=0.70 / qpmin=10 / qpmax=20 / qpstep=4 / ip_ratio=1.40 / aq=1:1.00 Default : Yes Forced : No Audio ID : 2 Format : FLAC Format/Info : Free Lossless Audio Codec Codec ID : A_FLAC Duration : 23 min 41 s Bit rate mode : Variable Bit rate : 1 416 kb/s Channel(s) : 2 channels Channel positions : Front: L R Sampling rate : 48.0 kHz Frame rate : 10.417 FPS (4608 SPF) Bit depth : 24 bits Stream size : 240 MiB (18%) Writing library : Lavf57.83.100 Language : Japanese Default : Yes Forced : No Text ID : 3 Format : ASS Codec ID : S_TEXT/ASS Codec ID/Info : Advanced Sub Station Alpha Duration : 26 min 5 s Bit rate : 6 659 b/s Count of elements : 3035 Compression mode : Lossless Stream size : 1.24 MiB (0%) Title : Nii-sama Language : English Default : Yes Forced : No Menu 00:00:00.000 : en:START / en:INDEX 01 00:02:56.000 : en:OP / en:INDEX 01 00:04:26.000 : en:Part 1 / en:INDEX 01 00:10:17.000 : en:Part 2 / en:INDEX 01 00:19:46.000 : en:Part 3 / en:INDEX 01 00:21:45.000 : en:ED / en:INDEX 01 00:23:15.000 : en:Part 4 / en:INDEX 01 00:23:35.000 : en:Preview / en:INDEX 01 ```

File list

  • [SCP-2223] Blend S [Blu-ray 1080p h264 FLAC]
    • [SCP-2223] Blend S - 01 [Blu-ray 1080p h264 FLAC][F989CEB0].mkv (1.3 GiB)
    • [SCP-2223] Blend S - 02 [Blu-ray 1080p h264 FLAC][E3A51152].mkv (1.2 GiB)
    • [SCP-2223] Blend S - 03 [Blu-ray 1080p h264 FLAC][EEEFBDD0].mkv (1.2 GiB)
    • [SCP-2223] Blend S - 04 [Blu-ray 1080p h264 FLAC][B9E216C8].mkv (1.3 GiB)
    • [SCP-2223] Blend S - 05 [Blu-ray 1080p h264 FLAC][D3177A39].mkv (1.3 GiB)
    • [SCP-2223] Blend S - 06 [Blu-ray 1080p h264 FLAC][58E12C3C].mkv (1.3 GiB)
    • [SCP-2223] Blend S - 07 [Blu-ray 1080p h264 FLAC][18CC1418].mkv (1.2 GiB)
    • [SCP-2223] Blend S - 08 [Blu-ray 1080p h264 FLAC][320D61C4].mkv (1.2 GiB)
    • [SCP-2223] Blend S - 09 [Blu-ray 1080p h264 FLAC][1EA959A3].mkv (1.2 GiB)
    • [SCP-2223] Blend S - 10 [Blu-ray 1080p h264 FLAC][C1BB30C9].mkv (1.2 GiB)
    • [SCP-2223] Blend S - 11 [Blu-ray 1080p h264 FLAC][C653D80A].mkv (1.3 GiB)
    • [SCP-2223] Blend S - 12 [Blu-ray 1080p h264 FLAC][6B7B9D98].mkv (1.2 GiB)
Love your work <3. Here are the [Google Drive DDLs](https://bit.ly/2CJxtvx)