[AOmundson] Overlord II + Specials & Extras (BD x264 1080p Hi10P FLAC)

Category:
Date:
2018-07-29 19:37 UTC
Submitter:
Seeders:
0
Information:
No information.
Leechers:
0
File size:
27.4 GiB
Completed:
243
Info hash:
5bddaae205aa17d0ed171649d962a8c667fe8e23
Video ID : 1 Format : AVC Format/Info : Advanced Video Codec Format profile : High 10@L5.1 Format settings : CABAC / 16 Ref Frames Format settings, CABAC : Yes Format settings, RefFrames : 16 frames Codec ID : V_MPEG4/ISO/AVC Duration : 24 min 10 s Bit rate : 9 969 kb/s Width : 1 920 pixels Height : 1 080 pixels Display aspect ratio : 16:9 Frame rate mode : Constant Frame rate : 23.976 (24000/1001) FPS Color space : YUV Chroma subsampling : 4:2:0 Bit depth : 10 bits Scan type : Progressive Bits/(Pixel*Frame) : 0.201 Stream size : 1.68 GiB (88%) Writing library : x264 core 155 r2901 7d0ff22 Encoding settings : cabac=1 / ref=16 / deblock=1:0:0 / analyse=0x3:0x133 / me=umh / subme=11 / psy=1 / psy_rd=0.90:0.10 / mixed_ref=1 / me_range=32 / chroma_me=1 / trellis=2 / 8x8dct=1 / cqm=0 / deadzone=21,11 / fast_pskip=0 / chroma_qp_offset=-3 / threads=12 / lookahead_threads=2 / sliced_threads=0 / nr=0 / decimate=1 / interlaced=0 / bluray_compat=0 / constrained_intra=0 / bframes=8 / b_pyramid=2 / b_adapt=2 / b_bias=0 / direct=3 / weightb=1 / open_gop=0 / weightp=2 / keyint=240 / keyint_min=23 / scenecut=40 / intra_refresh=0 / rc_lookahead=60 / rc=crf / mbtree=1 / crf=14.0 / qcomp=0.60 / qpmin=0 / qpmax=69 / qpstep=4 / ip_ratio=1.40 / aq=3:0.80 Language : Japanese Default : Yes Forced : No Audio #1 ID : 2 Format : FLAC Format/Info : Free Lossless Audio Codec Codec ID : A_FLAC Duration : 24 min 10 s Bit rate mode : Variable Bit rate : 707 kb/s Channel(s) : 2 channels Channel positions : Front: L R Sampling rate : 48.0 kHz Frame rate : 11.719 FPS (4096 SPF) Bit depth : 16 bits Stream size : 122 MiB (6%) Writing library : libFLAC 1.3.2 (UTC 2017-01-01) Language : Japanese Default : Yes Forced : No Audio #2 ID : 3 Format : FLAC Format/Info : Free Lossless Audio Codec Codec ID : A_FLAC Duration : 24 min 10 s Bit rate mode : Variable Bit rate : 707 kb/s Channel(s) : 2 channels Channel positions : Front: L R Sampling rate : 48.0 kHz Frame rate : 11.719 FPS (4096 SPF) Bit depth : 16 bits Stream size : 122 MiB (6%) Title : Commentary Writing library : libFLAC 1.3.2 (UTC 2017-01-01) Language : Japanese Default : No Forced : No

File list

  • [AOmundson] Overlord II [1080p]
    • CD
      • Drama CD - Ainz Raises Money.flac (227.7 MiB)
      • オーバーロードII スペシャルサウンドトラックCD.flac (690.6 MiB)
    • Menus
      • [AOmundson] Overlord II Menu - 01.mkv (10.9 MiB)
      • [AOmundson] Overlord II Menu - 02.mkv (9.5 MiB)
      • [AOmundson] Overlord II Menu - 03.mkv (11.9 MiB)
    • OP & ED
      • [AOmundson] Overlord II - ED.mkv (131.9 MiB)
      • [AOmundson] Overlord II - OP.mkv (170.2 MiB)
    • PV
      • [AOmundson] Overlord II PV - 01.mkv (46.5 MiB)
      • [AOmundson] Overlord II PV - 02.mkv (39.2 MiB)
      • [AOmundson] Overlord II PV - 03.mkv (37.7 MiB)
      • [AOmundson] Overlord II PV - 04.mkv (40.6 MiB)
      • [AOmundson] Overlord II PV - 05.mkv (35.9 MiB)
      • [AOmundson] Overlord II PV - 06.mkv (44.0 MiB)
      • [AOmundson] Overlord II PV - 07.mkv (36.2 MiB)
      • [AOmundson] Overlord II PV - 08.mkv (37.7 MiB)
      • [AOmundson] Overlord II PV - 09.mkv (37.5 MiB)
      • [AOmundson] Overlord II PV - 10.mkv (33.9 MiB)
      • [AOmundson] Overlord II PV - 11.mkv (35.9 MiB)
      • [AOmundson] Overlord II PV - 12.mkv (36.2 MiB)
      • [AOmundson] Overlord II PV - 13.mkv (37.8 MiB)
      • [AOmundson] Overlord II PV - 14.mkv (53.6 MiB)
      • [AOmundson] Overlord II PV - 15.mkv (39.7 MiB)
      • [AOmundson] Overlord II PV - 16.mkv (85.0 MiB)
      • [AOmundson] Overlord II PV - 17.mkv (102.7 MiB)
      • [AOmundson] Overlord II PV - 18.mkv (25.3 MiB)
      • [AOmundson] Overlord II PV - 19.mkv (25.2 MiB)
    • Specials
      • [AOmundson] Overlord II Special - 01.mkv (47.8 MiB)
      • [AOmundson] Overlord II Special - 02.mkv (42.4 MiB)
      • [AOmundson] Overlord II Special - 03.mkv (39.9 MiB)
      • [AOmundson] Overlord II Special - 04.mkv (36.0 MiB)
      • [AOmundson] Overlord II Special - 05.mkv (48.2 MiB)
      • [AOmundson] Overlord II Special - 06.mkv (52.8 MiB)
      • [AOmundson] Overlord II Special - 07.mkv (49.6 MiB)
      • [AOmundson] Overlord II Special - 08.mkv (43.2 MiB)
      • [AOmundson] Overlord II Special - 09.mkv (43.3 MiB)
      • [AOmundson] Overlord II Special - 10.mkv (50.7 MiB)
      • [AOmundson] Overlord II Special - 11.mkv (45.8 MiB)
      • [AOmundson] Overlord II Special - 12.mkv (45.9 MiB)
      • [AOmundson] Overlord II Special - 13.mkv (39.1 MiB)
      • [AOmundson] Overlord II Special - 14.mkv (46.4 MiB)
    • [AOmundson] Overlord II - 01.mkv (1.9 GiB)
    • [AOmundson] Overlord II - 02.mkv (1.8 GiB)
    • [AOmundson] Overlord II - 03.mkv (2.2 GiB)
    • [AOmundson] Overlord II - 04.mkv (1.9 GiB)
    • [AOmundson] Overlord II - 05.mkv (1.9 GiB)
    • [AOmundson] Overlord II - 06.mkv (1.9 GiB)
    • [AOmundson] Overlord II - 07.mkv (1.9 GiB)
    • [AOmundson] Overlord II - 08.mkv (1.9 GiB)
    • [AOmundson] Overlord II - 09.mkv (1.9 GiB)
    • [AOmundson] Overlord II - 10.mkv (1.9 GiB)
    • [AOmundson] Overlord II - 11.mkv (2.0 GiB)
    • [AOmundson] Overlord II - 12.mkv (1.8 GiB)
    • [AOmundson] Overlord II - 13.mkv (1.9 GiB)