[SCP-2223] Clockwork Planet [Blu-ray 1080p h264 FLAC]

Category:
Date:
2018-07-28 23:56 UTC
Submitter:
Seeders:
2
Information:
Leechers:
1
File size:
42.2 GiB
Completed:
345
Info hash:
0846993b7b62f3b58e3b9c21fcfdc1ba49b5e4a7
Contains ReinForce raws with sync'd DameDesuYo (episodes 01-04) and CR (episodes 05-12) softsubs. ``` General Unique ID : 117618649117622449419729375727464492885 (0x587C8720388690D4452937F5FC9C2F55) Complete name : [SCP-2223] Clockwork Planet - 01 [Blu-ray 1080p h264 FLAC][1B571159].mkv Format : Matroska Format version : Version 4 / Version 2 File size : 3.58 GiB Duration : 24 min 12 s Overall bit rate mode : Variable Overall bit rate : 21.2 Mb/s Movie name : [SCP-2223] Clockwork Planet - 01 [Blu-ray 1080p h264 FLAC] Encoded date : UTC 2018-06-27 13:36:47 Writing application : mkvmerge v19.0.0 ('Brave Captain') 64-bit Writing library : libebml v1.3.5 + libmatroska v1.4.8 Cover : Yes Attachments : cover.png / gunplay rg.ttf / hitroad.ttf / Impress_BT_Regular.ttf / nyala.TTF / PTS75F_0.ttf / Raleway-Bold.ttf / Roboto-Light.ttf / RolandBecker Bold.ttf / ASAP-BOLD.TTF / Chanor_Sans_Book_Bold_by_xlphs.otf Video ID : 1 Format : AVC Format/Info : Advanced Video Codec Format profile : High@L4 Format settings : CABAC / 4 Ref Frames Format settings, CABAC : Yes Format settings, ReFrames : 4 frames Codec ID : V_MPEG4/ISO/AVC Duration : 24 min 12 s Bit rate : 19.7 Mb/s Width : 1 920 pixels Height : 1 080 pixels Display aspect ratio : 16:9 Frame rate mode : Constant Frame rate : 23.976 (24000/1001) FPS Color space : YUV Chroma subsampling : 4:2:0 Bit depth : 8 bits Scan type : Progressive Bits/(Pixel*Frame) : 0.396 Stream size : 3.33 GiB (93%) Writing library : x264 core 148 Encoding settings : opencl=1 / cabac=1 / ref=4 / deblock=1:-2:-2 / analyse=0x3:0x113 / me=umh / subme=9 / psy=1 / psy_rd=0.70:0.00 / mixed_ref=0 / me_range=32 / chroma_me=1 / trellis=2 / 8x8dct=1 / cqm=0 / deadzone=21,11 / fast_pskip=1 / chroma_qp_offset=-2 / threads=8 / lookahead_threads=1 / sliced_threads=0 / nr=0 / decimate=1 / interlaced=0 / bluray_compat=0 / constrained_intra=0 / bframes=9 / b_pyramid=2 / b_adapt=2 / b_bias=0 / direct=3 / weightb=1 / open_gop=0 / weightp=2 / keyint=250 / keyint_min=23 / scenecut=40 / intra_refresh=0 / rc_lookahead=40 / rc=crf / mbtree=1 / crf=16.0 / qcomp=0.70 / qpmin=10 / qpmax=20 / qpstep=4 / ip_ratio=1.40 / aq=1:1.00 Default : Yes Forced : No Audio ID : 2 Format : FLAC Format/Info : Free Lossless Audio Codec Codec ID : A_FLAC Duration : 24 min 12 s Bit rate mode : Variable Bit rate : 1 455 kb/s Channel(s) : 2 channels Channel positions : Front: L R Sampling rate : 48.0 kHz Frame rate : 10.417 FPS (4608 SPF) Bit depth : 24 bits Stream size : 252 MiB (7%) Writing library : Lavf57.71.100 Language : Japanese Default : Yes Forced : No Text ID : 3 Format : ASS Codec ID : S_TEXT/ASS Codec ID/Info : Advanced Sub Station Alpha Duration : 24 min 4 s Bit rate : 18.2 kb/s Count of elements : 9977 Compression mode : Lossless Stream size : 3.13 MiB (0%) Title : DameDesuYo Language : English Default : Yes Forced : No Menu 00:00:00.000 : en:Intro 00:03:20.010 : en:Opening 00:04:49.970 : en:Part A 00:13:12.930 : en:Part B 00:22:09.970 : en:Ending 00:23:39.980 : en:Preview ```

File list

  • [SCP-2223] Clockwork Planet [Blu-ray 1080p h264 FLAC]
    • [SCP-2223] Clockwork Planet - 01 [Blu-ray 1080p h264 FLAC][1B571159].mkv (3.6 GiB)
    • [SCP-2223] Clockwork Planet - 02 [Blu-ray 1080p h264 FLAC][CEB3E1AB].mkv (3.6 GiB)
    • [SCP-2223] Clockwork Planet - 03 [Blu-ray 1080p h264 FLAC][C72E1041].mkv (3.4 GiB)
    • [SCP-2223] Clockwork Planet - 04 [Blu-ray 1080p h264 FLAC][48B36C0E].mkv (3.4 GiB)
    • [SCP-2223] Clockwork Planet - 05 [Blu-ray 1080p h264 FLAC][3F1079B3].mkv (3.3 GiB)
    • [SCP-2223] Clockwork Planet - 06 [Blu-ray 1080p h264 FLAC][84CD64A1].mkv (3.6 GiB)
    • [SCP-2223] Clockwork Planet - 07 [Blu-ray 1080p h264 FLAC][E8D46DC4].mkv (3.4 GiB)
    • [SCP-2223] Clockwork Planet - 08 [Blu-ray 1080p h264 FLAC][A03A5A3B].mkv (3.5 GiB)
    • [SCP-2223] Clockwork Planet - 09 [Blu-ray 1080p h264 FLAC][1E289C29].mkv (3.3 GiB)
    • [SCP-2223] Clockwork Planet - 10 [Blu-ray 1080p h264 FLAC][5E0372A7].mkv (3.9 GiB)
    • [SCP-2223] Clockwork Planet - 11 [Blu-ray 1080p h264 FLAC][FFC0F559].mkv (3.5 GiB)
    • [SCP-2223] Clockwork Planet - 12 [Blu-ray 1080p h264 FLAC][9E04E3BA].mkv (3.7 GiB)
dual dubbed, subbed?
@Nokou From description Audio "Language : Japanese" Text "Language : English"
Thank you:) Could you upload Hinako Note too?
Since AT didn’t fetch this, [here](https://mega.nz/#!2X4ChKoS!KI2SW8kMnzuwCq_pC3jSihepeI5i-gXYOToVPw8tsvE) are the subtitles, fonts and chapters.
^ [re-upload](https://mega.nz/#!mfAlkKLC!lQJNnNEgSJaWaOLw_UuNQQoNq6k6X612E8We5n9TX6o)
^ [reupload #2](https://mega.nz/#!WCAnUC7Z!_HKYvGaqJ258fa55rHrBZ_4w5WNUWdOR6puEMJAFs6w) (pw is OP's username)
^ [reupload #3](https://share.dmca.gripe/2MPaKRkU91SGyeVZ.7z)