[SCP-2223] Fuuka [Blu-ray 1080p h265-10bit FLAC]

Category:
Date:
2018-07-28 13:28 UTC
Submitter:
Seeders:
6
Information:
Leechers:
0
File size:
10.0 GiB
Completed:
620
Info hash:
c147bc2628269fa9698c5666d827f37694a6670c
Contains VCB-Studio raws with sync'd CR softsubs. Episodes 2, 3, 5, 8, 10 and 12 contain an AAC commentary track. ``` General Unique ID : 185483956419829649740679119102445327471 (0x8B8AE91C3EC1C79DE5530F92131F946F) Complete name : [SCP-2223] Fuuka - 01 [Blu-ray 1080p h265-10bit FLAC][F0334E1A].mkv Format : Matroska Format version : Version 4 / Version 2 File size : 845 MiB Duration : 24 min 11 s Overall bit rate mode : Variable Overall bit rate : 4 884 kb/s Movie name : [SCP-2223] Fuuka - 01 [Blu-ray 1080p h265-10bit FLAC] Encoded date : UTC 2018-07-01 17:02:14 Writing application : mkvmerge v19.0.0 ('Brave Captain') 64-bit Writing library : libebml v1.3.5 + libmatroska v1.4.8 Attachments : OpenSans-Semibold.ttf Video ID : 1 Format : HEVC Format/Info : High Efficiency Video Coding Format profile : Main 10@L4.1@High Codec ID : V_MPEGH/ISO/HEVC Duration : 24 min 11 s Bit rate : 3 414 kb/s Width : 1 920 pixels Height : 1 080 pixels Display aspect ratio : 16:9 Frame rate mode : Constant Frame rate : 23.976 (24000/1001) FPS Color space : YUV Chroma subsampling : 4:2:0 Bit depth : 10 bits Bits/(Pixel*Frame) : 0.069 Stream size : 591 MiB (70%) Writing library : x265 2.3+1-7e225aefd389:[Windows][MSVC 1910][64 bit] 10bit Encoding settings : cpuid=1173503 / frame-threads=5 / numa-pools=24 / wpp / no-pmode / no-pme / no-psnr / no-ssim / log-level=2 / input-csp=1 / input-res=1920x1080 / interlace=0 / total-frames=0 / level-idc=0 / high-tier=1 / uhd-bd=0 / ref=4 / no-allow-non-conformance / no-repeat-headers / annexb / no-aud / no-hrd / info / hash=0 / no-temporal-layers / no-open-gop / min-keyint=1 / keyint=360 / bframes=6 / b-adapt=2 / b-pyramid / bframe-bias=0 / rc-lookahead=80 / lookahead-slices=4 / scenecut=40 / no-intra-refresh / ctu=32 / min-cu-size=8 / no-rect / no-amp / max-tu-size=32 / tu-inter-depth=2 / tu-intra-depth=2 / limit-tu=0 / rdoq-level=2 / dynamic-rd=0.00 / signhide / no-tskip / nr-intra=0 / nr-inter=0 / no-constrained-intra / no-strong-intra-smoothing / max-merge=3 / limit-refs=2 / limit-modes / me=3 / subme=3 / merange=44 / temporal-mvp / weightp / weightb / no-analyze-src-pics / deblock=-1:-1 / no-sao / no-sao-non-deblock / rd=4 / no-early-skip / rskip / no-fast-intra / no-tskip-fast / no-cu-lossless / b-intra / rdpenalty=0 / psy-rd=2.00 / psy-rdoq=3.00 / no-rd-refine / analysis-mode=0 / no-lossless / cbqpoffs=-3 / crqpoffs=-3 / rc=crf / crf=15.5 / qcomp=0.70 / qpstep=4 / stats-write=0 / stats-read=0 / vbv-maxrate=35000 / vbv-bufsize=40000 / vbv-init=0.9 / crf-max=0.0 / crf-min=0.0 / ipratio=1.40 / pbratio=1.20 / aq-mode=1 / aq-strength=0.90 / cutree / zone-count=0 / no-strict-cbr / qg-size=16 / no-rc-grain / qpmax=69 / qpmin=0 / sar=0 / overscan=0 / videoformat=5 / range=0 / colorprim=2 / transfer=2 / colormatrix=1 / chromaloc=0 / display-window=0 / max-cll=0,0 / min-luma=0 / max-luma=1023 / log2-max-poc-lsb=8 / vui-timing-info / vui-hrd-info / slices=1 / opt-qp-pps / opt-ref-list-length-pps / no-multi-pass-opt-rps / scenecut-bias=0.05 / no-opt-cu-delta-qp / no-aq-motion / no-hdr Default : Yes Forced : No Color range : Limited Matrix coefficients : BT.709 Audio ID : 2 Format : FLAC Format/Info : Free Lossless Audio Codec Codec ID : A_FLAC Duration : 24 min 11 s Bit rate mode : Variable Bit rate : 1 467 kb/s Channel(s) : 2 channels Channel positions : Front: L R Sampling rate : 48.0 kHz Frame rate : 11.719 FPS (4096 SPF) Bit depth : 24 bits Stream size : 254 MiB (30%) Writing library : libFLAC 1.2.1 (UTC 2007-09-17) Language : Japanese Default : Yes Forced : No Text ID : 3 Format : ASS Codec ID : S_TEXT/ASS Codec ID/Info : Advanced Sub Station Alpha Duration : 24 min 5 s Bit rate : 132 b/s Count of elements : 375 Compression mode : Lossless Stream size : 23.4 KiB (0%) Title : CR Language : English Default : Yes Forced : No ```

File list

  • [SCP-2223] Fuuka [Blu-ray 1080p h265-10bit FLAC]
    • [SCP-2223] Fuuka - 01 [Blu-ray 1080p h265-10bit FLAC][F0334E1A].mkv (845.2 MiB)
    • [SCP-2223] Fuuka - 02 [Blu-ray 1080p h265-10bit FLAC][0DB7B921].mkv (802.7 MiB)
    • [SCP-2223] Fuuka - 03 [Blu-ray 1080p h265-10bit FLAC][192BE085].mkv (906.0 MiB)
    • [SCP-2223] Fuuka - 04 [Blu-ray 1080p h265-10bit FLAC][012485E5].mkv (770.0 MiB)
    • [SCP-2223] Fuuka - 05 [Blu-ray 1080p h265-10bit FLAC][3EEB743A].mkv (789.3 MiB)
    • [SCP-2223] Fuuka - 06 [Blu-ray 1080p h265-10bit FLAC][4650C2CD].mkv (1.3 GiB)
    • [SCP-2223] Fuuka - 07 [Blu-ray 1080p h265-10bit FLAC][98691E8C].mkv (713.3 MiB)
    • [SCP-2223] Fuuka - 08 [Blu-ray 1080p h265-10bit FLAC][19FCAB45].mkv (591.5 MiB)
    • [SCP-2223] Fuuka - 09 [Blu-ray 1080p h265-10bit FLAC][EA39AA80].mkv (724.2 MiB)
    • [SCP-2223] Fuuka - 10 [Blu-ray 1080p h265-10bit FLAC][4377368D].mkv (823.3 MiB)
    • [SCP-2223] Fuuka - 11 [Blu-ray 1080p h265-10bit FLAC][55CDF8B3].mkv (694.5 MiB)
    • [SCP-2223] Fuuka - 12 [Blu-ray 1080p h265-10bit FLAC][EE63F31C].mkv (1.2 GiB)
A ddl link for sub file please! Thank you