[SCP-2223] Koi to Uso [Blu-ray 1080p h265-10bit FLAC]

Category:
Date:
2018-07-28 13:27 UTC
Submitter:
Seeders:
8
Information:
Leechers:
0
File size:
11.5 GiB
Completed:
803
Info hash:
0ce5bd1d43e622da22706b3afb18f40126160467
Contains VCB-Studio raws with sync'd Amazon Sentai softsubs. ``` General Unique ID : 302375943730001443979279711813805212046 (0xE37B7D0B01AA6C1B2DC2FFDDF8A3018E) Complete name : [SCP-2223] Koi to Uso - 01 [Blu-ray 1080p h265-10bit FLAC][98755302].mkv Format : Matroska Format version : Version 4 / Version 2 File size : 1.24 GiB Duration : 23 min 53 s Overall bit rate mode : Variable Overall bit rate : 7 429 kb/s Movie name : [SCP-2223] Koi to Uso - 01 [Blu-ray 1080p h265-10bit FLAC] Encoded date : UTC 2018-07-01 18:13:55 Writing application : mkvmerge v19.0.0 ('Brave Captain') 64-bit Writing library : libebml v1.3.5 + libmatroska v1.4.8 Attachments : OpenSans-Semibold.ttf Video ID : 1 Format : HEVC Format/Info : High Efficiency Video Coding Format profile : Main 10@L4.1@High Codec ID : V_MPEGH/ISO/HEVC Duration : 23 min 53 s Bit rate : 6 055 kb/s Width : 1 920 pixels Height : 1 080 pixels Display aspect ratio : 16:9 Frame rate mode : Constant Frame rate : 23.976 (24000/1001) FPS Color space : YUV Chroma subsampling : 4:2:0 Bit depth : 10 bits Bits/(Pixel*Frame) : 0.122 Stream size : 1.01 GiB (82%) Writing library : x265 2.5+5-0b3ba15b33ea:[Windows][MSVC 1911][64 bit] 10bit Encoding settings : cpuid=1173503 / frame-threads=5 / numa-pools=32,0 / wpp / no-pmode / no-pme / no-psnr / no-ssim / log-level=2 / input-csp=1 / input-res=1920x1080 / interlace=0 / total-frames=0 / level-idc=0 / high-tier=1 / uhd-bd=0 / ref=4 / no-allow-non-conformance / no-repeat-headers / annexb / no-aud / no-hrd / info / hash=0 / no-temporal-layers / no-open-gop / min-keyint=1 / keyint=360 / bframes=6 / b-adapt=2 / b-pyramid / bframe-bias=0 / rc-lookahead=80 / lookahead-slices=4 / scenecut=40 / no-intra-refresh / ctu=32 / min-cu-size=8 / no-rect / no-amp / max-tu-size=32 / tu-inter-depth=2 / tu-intra-depth=2 / limit-tu=4 / rdoq-level=2 / dynamic-rd=0.00 / no-ssim-rd / signhide / no-tskip / nr-intra=0 / nr-inter=0 / no-constrained-intra / no-strong-intra-smoothing / max-merge=3 / limit-refs=2 / limit-modes / me=3 / subme=3 / merange=44 / temporal-mvp / weightp / weightb / no-analyze-src-pics / deblock=-1:-1 / no-sao / no-sao-non-deblock / rd=4 / no-early-skip / rskip / no-fast-intra / no-tskip-fast / no-cu-lossless / b-intra / rdpenalty=0 / psy-rd=2.00 / psy-rdoq=3.00 / no-rd-refine / analysis-reuse-mode=0 / no-lossless / cbqpoffs=-3 / crqpoffs=-3 / rc=crf / crf=15.5 / qcomp=0.70 / qpstep=4 / stats-write=0 / stats-read=0 / vbv-maxrate=35000 / vbv-bufsize=40000 / vbv-init=0.9 / crf-max=0.0 / crf-min=0.0 / ipratio=1.40 / pbratio=1.20 / aq-mode=1 / aq-strength=0.90 / cutree / zone-count=0 / no-strict-cbr / qg-size=16 / no-rc-grain / qpmax=69 / qpmin=0 / no-const-vbv / sar=0 / overscan=0 / videoformat=5 / range=0 / colorprim=2 / transfer=2 / colormatrix=1 / chromaloc=0 / display-window=0 / max-cll=0,0 / min-luma=0 / max-luma=1023 / log2-max-poc-lsb=8 / vui-timing-info / vui-hrd-info / slices=1 / opt-qp-pps / opt-ref-list-length-pps / no-multi-pass-opt-rps / scenecut-bias=0.05 / no-opt-cu-delta-qp / no-aq-motion / no-hdr / no-hdr-opt / no-dhdr10-opt / analysis-reuse-level=5 / scale-factor=0 / refine-intra=0 / refine-inter=0 / refine-mv=0 / no-limit-sao / ctu-info=0 Default : Yes Forced : No Color range : Limited Matrix coefficients : BT.709 Audio ID : 2 Format : FLAC Format/Info : Free Lossless Audio Codec Codec ID : A_FLAC Duration : 23 min 53 s Bit rate mode : Variable Bit rate : 1 370 kb/s Channel(s) : 2 channels Channel positions : Front: L R Sampling rate : 48.0 kHz Frame rate : 11.719 FPS (4096 SPF) Bit depth : 24 bits Stream size : 234 MiB (18%) Writing library : libFLAC 1.2.1 (UTC 2007-09-17) Language : Japanese Default : Yes Forced : No Text ID : 3 Format : ASS Codec ID : S_TEXT/ASS Codec ID/Info : Advanced Sub Station Alpha Duration : 23 min 41 s Bit rate : 91 b/s Count of elements : 267 Compression mode : Lossless Stream size : 15.9 KiB (0%) Title : Amazon Sentai Language : English Default : Yes Forced : No ```

File list

  • [SCP-2223] Koi to Uso [Blu-ray 1080p h265-10bit FLAC]
    • [SCP-2223] Koi to Uso - 01 [Blu-ray 1080p h265-10bit FLAC][98755302].mkv (1.2 GiB)
    • [SCP-2223] Koi to Uso - 02 [Blu-ray 1080p h265-10bit FLAC][A297BEBE].mkv (972.4 MiB)
    • [SCP-2223] Koi to Uso - 03 [Blu-ray 1080p h265-10bit FLAC][259A03EA].mkv (921.4 MiB)
    • [SCP-2223] Koi to Uso - 04 [Blu-ray 1080p h265-10bit FLAC][8DC0C977].mkv (844.8 MiB)
    • [SCP-2223] Koi to Uso - 05 [Blu-ray 1080p h265-10bit FLAC][15B045F0].mkv (1.2 GiB)
    • [SCP-2223] Koi to Uso - 06 [Blu-ray 1080p h265-10bit FLAC][DB6412DE].mkv (998.3 MiB)
    • [SCP-2223] Koi to Uso - 07 [Blu-ray 1080p h265-10bit FLAC][E98394F8].mkv (884.7 MiB)
    • [SCP-2223] Koi to Uso - 08 [Blu-ray 1080p h265-10bit FLAC][0829997A].mkv (973.7 MiB)
    • [SCP-2223] Koi to Uso - 09 [Blu-ray 1080p h265-10bit FLAC][A4E80D04].mkv (953.7 MiB)
    • [SCP-2223] Koi to Uso - 10 [Blu-ray 1080p h265-10bit FLAC][47EF32C9].mkv (905.4 MiB)
    • [SCP-2223] Koi to Uso - 11 [Blu-ray 1080p h265-10bit FLAC][24CB0994].mkv (960.4 MiB)
    • [SCP-2223] Koi to Uso - 12 [Blu-ray 1080p h265-10bit FLAC][7FEA4C24].mkv (921.5 MiB)