[SCP-2223] Kill Me Baby [Blu-ray 1080p h265-10bit FLAC]

Category:
Date:
2018-07-28 13:23 UTC
Submitter:
Seeders:
7
Information:
Leechers:
1
File size:
9.1 GiB
Completed:
889
Info hash:
7f0f0959fd1c1b615e5bbe10562be34ce4140dc1
Contains VCB-Studio raws with sync'd UTW-Mazui softsubs. All episodes contain an AAC commentary track. ``` General Unique ID : 165561205914855330550103854989738525207 (0x7C8DEDAC4793FB20F9645082FD9C4217) Complete name : [SCP-2223] Kill Me Baby - 01 [Blu-ray 1080p h265-10bit FLAC][901FBAC8].mkv Format : Matroska Format version : Version 4 / Version 2 File size : 765 MiB Duration : 24 min 12 s Overall bit rate mode : Variable Overall bit rate : 4 418 kb/s Movie name : [SCP-2223] Kill Me Baby - 01 [Blu-ray 1080p h265-10bit FLAC] Encoded date : UTC 2018-07-08 12:29:51 Writing application : mkvmerge v19.0.0 ('Brave Captain') 64-bit Writing library : libebml v1.3.5 + libmatroska v1.4.8 Attachments : A-OTF-FolkPro-Medium.otf / BiffoMTStd.otf / BirchStd.otf / BrunoJBStd.otf / Delicious-Heavy.otf / HighlanderStd-Medium.otf / KompaktLTStd.otf / MinionPro-Regular.otf / Montara-Gothic.otf / ReliqStd-Active.otf / SerifaStd-Light.otf / DFRULE5.TTC / DFRule50.ttc / 63193___.TTF / ALIEN5.TTF / ANA-ONEIROPARMENI82.TTF / arial.ttf / Arialtbg.ttf / ARNORG.TTF / Bloody Stump.ttf / Brady Bunch.ttf / BRLNSDB.TTF / Complete in Him.ttf / Complete_in_Him.ttf / corbel.ttf / Duepuntozero_bold.ttf / Felt Regular.ttf / GILLUBCD.TTF / icedeart.ttf / IcedEarth.ttf / ksbrush.ttf / lazy_dog.ttf / linkin.ttf / MECHAG.TTF / Mechanic_Pencil.ttf / PAPEJE.TTF / ROC_____.TTF / ROCK.TTF / SCAR6.TTF / SF Ferretopia Bold.ttf / y2k.ttf / YanoneTagesschrift.ttf Video ID : 1 Format : HEVC Format/Info : High Efficiency Video Coding Format profile : Main 10@L4@High Codec ID : V_MPEGH/ISO/HEVC Duration : 24 min 12 s Bit rate : 2 831 kb/s Width : 1 920 pixels Height : 1 080 pixels Display aspect ratio : 16:9 Frame rate mode : Constant Frame rate : 23.976 (24000/1001) FPS Color space : YUV Chroma subsampling : 4:2:0 Bit depth : 10 bits Bits/(Pixel*Frame) : 0.057 Stream size : 490 MiB (64%) Writing library : x265 2.5+5-0b3ba15b33ea:[Windows][MSVC 1911][64 bit] 10bit Encoding settings : cpuid=1173503 / frame-threads=5 / numa-pools=36 / wpp / no-pmode / no-pme / no-psnr / no-ssim / log-level=2 / input-csp=1 / input-res=1920x1080 / interlace=0 / total-frames=0 / level-idc=0 / high-tier=1 / uhd-bd=0 / ref=4 / no-allow-non-conformance / no-repeat-headers / annexb / no-aud / no-hrd / info / hash=0 / no-temporal-layers / no-open-gop / min-keyint=1 / keyint=360 / bframes=6 / b-adapt=2 / b-pyramid / bframe-bias=0 / rc-lookahead=80 / lookahead-slices=4 / scenecut=40 / no-intra-refresh / ctu=32 / min-cu-size=8 / rect / no-amp / max-tu-size=32 / tu-inter-depth=2 / tu-intra-depth=2 / limit-tu=4 / rdoq-level=2 / dynamic-rd=0.00 / no-ssim-rd / signhide / no-tskip / nr-intra=0 / nr-inter=0 / no-constrained-intra / no-strong-intra-smoothing / max-merge=3 / limit-refs=2 / limit-modes / me=3 / subme=4 / merange=38 / temporal-mvp / weightp / weightb / no-analyze-src-pics / deblock=-1:-1 / no-sao / no-sao-non-deblock / rd=5 / no-early-skip / rskip / no-fast-intra / no-tskip-fast / no-cu-lossless / b-intra / rdpenalty=0 / psy-rd=1.60 / psy-rdoq=1.00 / no-rd-refine / analysis-reuse-mode=0 / no-lossless / cbqpoffs=-2 / crqpoffs=-2 / rc=crf / crf=16.0 / qcomp=0.65 / qpstep=4 / stats-write=0 / stats-read=0 / vbv-maxrate=30000 / vbv-bufsize=40000 / vbv-init=0.9 / crf-max=0.0 / crf-min=0.0 / ipratio=1.40 / pbratio=1.20 / aq-mode=1 / aq-strength=0.70 / cutree / zone-count=0 / no-strict-cbr / qg-size=8 / no-rc-grain / qpmax=69 / qpmin=0 / no-const-vbv / sar=0 / overscan=0 / videoformat=5 / range=0 / colorprim=2 / transfer=2 / colormatrix=1 / chromaloc=0 / display-window=0 / max-cll=0,0 / min-luma=0 / max-luma=1023 / log2-max-poc-lsb=8 / vui-timing-info / vui-hrd-info / slices=1 / opt-qp-pps / opt-ref-list-length-pps / no-multi-pass-opt-rps / scenecut-bias=0.05 / no-opt-cu-delta-qp / no-aq-motion / no-hdr / no-hdr-opt / no-dhdr10-opt / analysis-reuse-level=5 / scale-factor=0 / refine-intra=0 / refine-inter=0 / refine-mv=0 / no-limit-sao / ctu-info=0 Default : Yes Forced : No Color range : Limited Matrix coefficients : BT.709 Audio #1 ID : 2 Format : FLAC Format/Info : Free Lossless Audio Codec Codec ID : A_FLAC Duration : 24 min 12 s Bit rate mode : Variable Bit rate : 1 318 kb/s Channel(s) : 2 channels Channel positions : Front: L R Sampling rate : 48.0 kHz Frame rate : 11.719 FPS (4096 SPF) Bit depth : 24 bits Stream size : 228 MiB (30%) Writing library : libFLAC 1.2.1 (UTC 2007-09-17) Language : Japanese Default : Yes Forced : No Audio #2 ID : 3 Format : AAC Format/Info : Advanced Audio Codec Format profile : LC Codec ID : A_AAC-2 Duration : 24 min 12 s Bit rate : 173 kb/s Channel(s) : 2 channels Channel positions : Front: L R Sampling rate : 48.0 kHz Frame rate : 46.875 FPS (1024 SPF) Compression mode : Lossy Delay relative to video : 20 ms Stream size : 29.9 MiB (4%) Language : Japanese Default : No Forced : No Text ID : 4 Format : ASS Codec ID : S_TEXT/ASS Codec ID/Info : Advanced Sub Station Alpha Duration : 24 min 9 s Bit rate : 547 b/s Count of elements : 1145 Compression mode : Lossless Stream size : 97.0 KiB (0%) Title : UTW-Mazui Language : English Default : Yes Forced : No Menu 00:00:00.000 : en:Prologue 00:00:49.090 : en:OP 00:02:28.856 : en:Part 1 00:11:01.869 : en:Part 2 00:22:09.786 : en:ED 00:23:39.793 : en:Preview ```

File list

  • [SCP-2223] Kill Me Baby [Blu-ray 1080p h265-10bit FLAC]
    • [SCP-2223] Kill Me Baby - 01 [Blu-ray 1080p h265-10bit FLAC][901FBAC8].mkv (764.9 MiB)
    • [SCP-2223] Kill Me Baby - 02 [Blu-ray 1080p h265-10bit FLAC][ADE39A2B].mkv (729.1 MiB)
    • [SCP-2223] Kill Me Baby - 03 [Blu-ray 1080p h265-10bit FLAC][77F5D11B].mkv (717.6 MiB)
    • [SCP-2223] Kill Me Baby - 04 [Blu-ray 1080p h265-10bit FLAC][730A0A6B].mkv (685.3 MiB)
    • [SCP-2223] Kill Me Baby - 05 [Blu-ray 1080p h265-10bit FLAC][E4AD0352].mkv (803.6 MiB)
    • [SCP-2223] Kill Me Baby - 06 [Blu-ray 1080p h265-10bit FLAC][7DDF4E53].mkv (782.1 MiB)
    • [SCP-2223] Kill Me Baby - 07 [Blu-ray 1080p h265-10bit FLAC][47EAC9FE].mkv (688.6 MiB)
    • [SCP-2223] Kill Me Baby - 08 [Blu-ray 1080p h265-10bit FLAC][B38BE05E].mkv (659.4 MiB)
    • [SCP-2223] Kill Me Baby - 09 [Blu-ray 1080p h265-10bit FLAC][9F8F15DF].mkv (794.0 MiB)
    • [SCP-2223] Kill Me Baby - 10 [Blu-ray 1080p h265-10bit FLAC][B1BD1EB3].mkv (785.4 MiB)
    • [SCP-2223] Kill Me Baby - 11 [Blu-ray 1080p h265-10bit FLAC][B4673D60].mkv (662.3 MiB)
    • [SCP-2223] Kill Me Baby - 12 [Blu-ray 1080p h265-10bit FLAC][DBE4E6EB].mkv (613.1 MiB)
    • [SCP-2223] Kill Me Baby - 13 [Blu-ray 1080p h265-10bit FLAC][88A9D622].mkv (595.9 MiB)