[SCP-2223] Citrus [Blu-ray 1080p h264 FLAC]

Category:
Date:
2018-07-28 13:20 UTC
Submitter:
Seeders:
2
Information:
Leechers:
0
File size:
11.8 GiB
Completed:
714
Info hash:
1bbbf265cdcf08e8f13f3427c1a492e07ba44bc4
Contains ReinForce raws with sync'd Chihiro (eps 01-09) and CR (10-12) softsubs. ``` General Unique ID : 185286163356317016219585378653277483561 (0x8B64D128CD96A8DEC71A11AC793F7229) Complete name : [SCP-2223] Citrus - 01 [Blu-ray 1080p h264 FLAC][332D41E4].mkv Format : Matroska Format version : Version 4 / Version 2 File size : 1.09 GiB Duration : 23 min 41 s Overall bit rate mode : Variable Overall bit rate : 6 613 kb/s Movie name : [SCP-2223] Citrus - 01 [Blu-ray 1080p h264 FLAC] Encoded date : UTC 2018-07-24 22:58:40 Writing application : mkvmerge v19.0.0 ('Brave Captain') 64-bit Writing library : libebml v1.3.5 + libmatroska v1.4.8 Attachments : Birdie.ttf / DCHgm5_0.ttc / DFPLeiSho-SB-WA2.ttf / DJB This is My Life.ttf / Hui v2.ttf / January Handwriting.ttf / Kozuka Gothic Regular Noragami.ttf / KozukaGothicProM-ENG-Medium.ttf / Myndraine.ttf / NozakiDialogue-Bold.otf / NozakiDialogue-BoldItalic.otf / Shartoll Light.otf Video ID : 1 Format : AVC Format/Info : Advanced Video Codec Format profile : High@L4 Format settings : CABAC / 4 Ref Frames Format settings, CABAC : Yes Format settings, ReFrames : 4 frames Codec ID : V_MPEG4/ISO/AVC Duration : 23 min 41 s Bit rate : 5 855 kb/s Width : 1 920 pixels Height : 1 080 pixels Display aspect ratio : 16:9 Frame rate mode : Constant Frame rate : 23.976 (24000/1001) FPS Color space : YUV Chroma subsampling : 4:2:0 Bit depth : 8 bits Scan type : Progressive Bits/(Pixel*Frame) : 0.118 Stream size : 992 MiB (89%) Writing library : x264 core 152 Encoding settings : opencl=1 / cabac=1 / ref=4 / deblock=1:-2:-2 / analyse=0x3:0x113 / me=umh / subme=9 / psy=1 / psy_rd=0.70:0.00 / mixed_ref=0 / me_range=32 / chroma_me=1 / trellis=2 / 8x8dct=1 / cqm=0 / deadzone=21,11 / fast_pskip=1 / chroma_qp_offset=-2 / threads=8 / lookahead_threads=1 / sliced_threads=0 / nr=0 / decimate=1 / interlaced=0 / bluray_compat=0 / constrained_intra=0 / bframes=9 / b_pyramid=2 / b_adapt=2 / b_bias=0 / direct=3 / weightb=1 / open_gop=0 / weightp=2 / keyint=250 / keyint_min=23 / scenecut=40 / intra_refresh=0 / rc_lookahead=40 / rc=crf / mbtree=1 / crf=16.0 / qcomp=0.70 / qpmin=10 / qpmax=20 / qpstep=4 / ip_ratio=1.40 / aq=1:1.00 Default : Yes Forced : No Audio ID : 2 Format : FLAC Format/Info : Free Lossless Audio Codec Codec ID : A_FLAC Duration : 23 min 41 s Bit rate mode : Variable Bit rate : 664 kb/s Channel(s) : 2 channels Channel positions : Front: L R Sampling rate : 48.0 kHz Frame rate : 10.417 FPS (4608 SPF) Bit depth : 16 bits Stream size : 113 MiB (10%) Writing library : Lavf57.83.100 Language : Japanese Default : Yes Forced : No Text ID : 3 Format : ASS Codec ID : S_TEXT/ASS Codec ID/Info : Advanced Sub Station Alpha Duration : 23 min 33 s Bit rate : 5 224 b/s Count of elements : 7379 Compression mode : Lossless Stream size : 901 KiB (0%) Title : Chihiro Language : English Default : Yes Forced : No Menu 00:00:00.000 : en:Prologue 00:00:37.079 : en:Opening 00:02:07.044 : en:Part A 00:12:30.083 : en:Part B 00:21:55.064 : en:Ending 00:23:25.070 : en:Preview ```

File list

  • [SCP-2223] Citrus [Blu-ray 1080p h264 FLAC]
    • [SCP-2223] Citrus - 01 [Blu-ray 1080p h264 FLAC][332D41E4].mkv (1.1 GiB)
    • [SCP-2223] Citrus - 02 [Blu-ray 1080p h264 FLAC][12B3476F].mkv (1023.2 MiB)
    • [SCP-2223] Citrus - 03 [Blu-ray 1080p h264 FLAC][B875632F].mkv (1.0 GiB)
    • [SCP-2223] Citrus - 04 [Blu-ray 1080p h264 FLAC][218D8FF9].mkv (1001.4 MiB)
    • [SCP-2223] Citrus - 05 [Blu-ray 1080p h264 FLAC][6DF5B577].mkv (988.1 MiB)
    • [SCP-2223] Citrus - 06 [Blu-ray 1080p h264 FLAC][B32C801C].mkv (1.0 GiB)
    • [SCP-2223] Citrus - 07 [Blu-ray 1080p h264 FLAC][C005AD0D].mkv (998.2 MiB)
    • [SCP-2223] Citrus - 08 [Blu-ray 1080p h264 FLAC][EAB04AAA].mkv (974.9 MiB)
    • [SCP-2223] Citrus - 09 [Blu-ray 1080p h264 FLAC][0F826F5A].mkv (966.4 MiB)
    • [SCP-2223] Citrus - 10 [Blu-ray 1080p h264 FLAC][893EE0A9].mkv (973.9 MiB)
    • [SCP-2223] Citrus - 11 [Blu-ray 1080p h264 FLAC][63D0E1CE].mkv (969.5 MiB)
    • [SCP-2223] Citrus - 12 [Blu-ray 1080p h264 FLAC][DC2EE785].mkv (935.1 MiB)
Thank you so much!
Why not make the video 10-bit?