[Idol Project] Aqours 2nd Love Live HPT Digest [Sub Indo](720p AAC 192K)

Category:
Date:
2018-07-18 07:18 UTC
Submitter:
Seeders:
1
Information:
Leechers:
0
File size:
1.5 GiB
Completed:
95
Info hash:
1fea8ea3313d665ac03ca6ed614ca0bc1ace7301
For Indonesian Love Livers Day 1 Finish Day 2 TypeSetting Check Short animasi sedang proses Lyrics Di Terjemahkan dari Love Live Wikia Tolong pakai Video Player MPC atau Potplyer ....Karena Scriptnya tidak support VLC ![](https://scontent-sit4-1.xx.fbcdn.net/v/t1.15752-9/37293827_141089953443392_2107795603269353472_n.png?_nc_cat=0&oh=9356dbf384fdf0954a0aac89ebe06acd&oe=5BE1E940) Video ID : 1 Format : AVC Format/Info : Advanced Video Codec Format profile : High@L3.1 Format settings : CABAC / 4 Ref Frames Format settings, CABAC : Yes Format settings, ReFrames : 4 frames Codec ID : V_MPEG4/ISO/AVC Duration : 1 h 3 min Bit rate : 3 200 kb/s Width : 1 280 pixels Height : 720 pixels Display aspect ratio : 16:9 Frame rate mode : Constant Frame rate : 30.000 FPS Color space : YUV Chroma subsampling : 4:2:0 Bit depth : 8 bits Scan type : Progressive Bits/(Pixel*Frame) : 0.116 Stream size : 1.42 GiB (94%) Writing library : x264 core 148 r2643 5c65704 Encoding settings : cabac=1 / ref=3 / deblock=1:0:0 / analyse=0x3:0x113 / me=hex / subme=7 / psy=1 / psy_rd=1.00:0.00 / mixed_ref=1 / me_range=16 / chroma_me=1 / trellis=1 / 8x8dct=1 / cqm=0 / deadzone=21,11 / fast_pskip=1 / chroma_qp_offset=-2 / threads=4 / lookahead_threads=1 / sliced_threads=0 / nr=0 / decimate=1 / interlaced=0 / bluray_compat=0 / constrained_intra=0 / bframes=3 / b_pyramid=2 / b_adapt=1 / b_bias=0 / direct=1 / weightb=1 / open_gop=0 / weightp=2 / keyint=250 / keyint_min=25 / scenecut=40 / intra_refresh=0 / rc_lookahead=40 / rc=abr / mbtree=1 / bitrate=3200 / ratetol=1.0 / qcomp=0.60 / qpmin=0 / qpmax=69 / qpstep=4 / ip_ratio=1.40 / aq=1:1.00 Language : Japanese Default : Yes Forced : No Audio ID : 2 Format : AAC Format/Info : Advanced Audio Codec Format profile : LC Codec ID : A_AAC-2 Duration : 1 h 3 min Bit rate : 192 kb/s Channel(s) : 2 channels Channel positions : Front: L R Sampling rate : 44.1 kHz Frame rate : 43.066 FPS (1024 SPF) Compression mode : Lossy Stream size : 88.6 MiB (6%) Language : Japanese Default : No Forced : No Text ID : 3 Format : ASS Codec ID : S_TEXT/ASS Codec ID/Info : Advanced Sub Station Alpha Duration : 1 h 3 min Bit rate : 166 b/s Count of elements : 1150 Compression mode : Lossless Stream size : 77.6 KiB (0%) Title : DIGEST part HPT Language : Indonesian Default : Yes Forced : No Menu 00:00:00.000 : en:01. Sora mo Kokoro mo Hareru kara 00:06:15.375 : en:02. Waku-Waku-Week! 00:10:34.634 : en:03. G Senjou no Cinderella 00:14:57.130 : en:04. ―MC1― 00:17:18.371 : en:05. Kimirai HAPPY End 00:22:28.581 : en:06. ―MC CYaRon !― 00:29:20.092 : en:07. Kaigandoori de Matteru yo 00:33:44.022 : en:08. GALAXY HidE and SeeK 00:38:43.321 : en:09. ―MC AZALEA― 00:45:34.565 : en:10. INNOCENT BIRD 00:49:21.959 : en:11. Kowareyasuki 00:54:26.763 : en:12. ―MC Guilty Kiss― 00:59:19.523 : en:13. Shadow gate to love

File list

  • [Idol Project] Aqours 2nd LoveLive! HAPPY PARTY TRAIN TOUR][Digest] 720p.mkv (1.5 GiB)
Semangat gan , di perbanyak ya Sub nya :D

You_Watanabe (uploader)

User
Ya Makasih~