[Komorebi] Violet Evergarden - 14 (OVA) [BD 1080p x264-10bit FLAC English Subtitles]

Category:
Date:
2018-07-16 22:27 UTC
Submitter:
Seeders:
27
Information:
#komorebi @ irc.rizon.net
Leechers:
0
File size:
1.6 GiB
Completed:
5892
Info hash:
84cb3d4ea3ecb75951387e45e796de6ea94a3e24
Custom release with Komorebi subs, loosely based off of Moaz & Dysp subs (among other sources), typesetted properly with perfect spelling and grammar, including OP/ED and flashback scenes from Vivid-Asenshi subs. This is as close as you'll get for now until Vivid-Asenshi sub this episode, if they decide to continue their Violet Evergarden project. [![Screenshot](https://picload.org/infonail/dlddlacl/vlcsnap-2018-07-16-18h03m52s38.jpg)](https://img2.picload.org/image/dlddlacl/vlcsnap-2018-07-16-18h03m52s38.png)[![Screenshot](https://picload.org/infonail/dlddlaci/vlcsnap-2018-07-16-18h04m05s47.jpg)](https://img2.picload.org/image/dlddlaci/vlcsnap-2018-07-16-18h04m05s47.png)[![Screenshot](https://picload.org/infonail/dlddlaia/vlcsnap-2018-07-16-18h05m25s47.jpg)](https://img2.picload.org/image/dlddlaia/vlcsnap-2018-07-16-18h05m25s47.png)[![Screenshot](https://picload.org/infonail/dlddlacw/vlcsnap-2018-07-16-18h04m33s83.jpg)](https://img2.picload.org/image/dlddlacw/vlcsnap-2018-07-16-18h04m33s83.png)[![Screenshot](https://picload.org/infonail/dlddlair/vlcsnap-2018-07-16-18h04m52s56.jpg)](https://img2.picload.org/image/dlddlair/vlcsnap-2018-07-16-18h04m52s56.png) Mediainfo: ``` General Unique ID : 142549044214649510124697797999817504290 (0x6B3DF280EBC2685A4893D7B82049B622) Complete name : [Komorebi] Violet Evergarden - 14 (OVA) [BD 1080p x264-10bit FLAC]\[Komorebi] Violet Evergarden 14 - OVA (BD 1080p) [F26B7228].mkv Format : Matroska Format version : Version 4 / Version 2 File size : 1.61 GiB Duration : 34 min 14 s Overall bit rate mode : Variable Overall bit rate : 6 729 kb/s Movie name : [Komorebi] Violet Evergarden 14 - OVA Encoded date : UTC 2018-07-16 21:56:12 Writing application : mkvmerge v23.0.0 ('The Bride Said No') 64-bit Writing library : libebml v1.3.6 + libmatroska v1.4.9 Attachments : FOT-KleePro-DB-Str.otf / IwaMinPro-Md-Kami.ttf / IwaOMinPro-Bd-Fate.ttf / justs.ttf / RH-Sans.ttf / RH-Sans-Italic.ttf Video ID : 1 Format : AVC Format/Info : Advanced Video Codec Format profile : High 10@L5.1 Format settings : CABAC / 16 Ref Frames Format settings, CABAC : Yes Format settings, RefFrames : 16 frames Codec ID : V_MPEG4/ISO/AVC Duration : 34 min 14 s Bit rate : 6 095 kb/s Width : 1 920 pixels Height : 1 080 pixels Display aspect ratio : 16:9 Frame rate mode : Constant Frame rate : 23.976 (24000/1001) FPS Color space : YUV Chroma subsampling : 4:2:0 Bit depth : 10 bits Scan type : Progressive Bits/(Pixel*Frame) : 0.123 Stream size : 1.46 GiB (91%) Title : Episode Writing library : x264 core 155 r2901 7d0ff22 Encoding settings : cabac=1 / ref=16 / deblock=1:-3:-3 / analyse=0x3:0x133 / me=umh / subme=11 / psy=1 / psy_rd=0.70:0.00 / mixed_ref=1 / me_range=32 / chroma_me=1 / trellis=2 / 8x8dct=1 / cqm=0 / deadzone=21,11 / fast_pskip=0 / chroma_qp_offset=-2 / threads=12 / lookahead_threads=3 / sliced_threads=0 / nr=0 / decimate=0 / interlaced=0 / bluray_compat=0 / constrained_intra=0 / bframes=12 / b_pyramid=2 / b_adapt=2 / b_bias=0 / direct=3 / weightb=1 / open_gop=0 / weightp=2 / keyint=250 / keyint_min=23 / scenecut=40 / intra_refresh=0 / rc_lookahead=250 / rc=crf / mbtree=1 / crf=14.0 / qcomp=0.65 / qpmin=0 / qpmax=81 / qpstep=4 / ip_ratio=1.40 / aq=2:0.85 Language : Japanese Default : Yes Forced : Yes Color range : Limited Color primaries : BT.709 Transfer characteristics : BT.709 Matrix coefficients : BT.709 Audio ID : 2 Format : FLAC Format/Info : Free Lossless Audio Codec Codec ID : A_FLAC Duration : 34 min 14 s Bit rate mode : Variable Bit rate : 621 kb/s Channel(s) : 2 channels Channel positions : Front: L R Sampling rate : 48.0 kHz Frame rate : 11.719 FPS (4096 SPF) Bit depth : 16 bits Stream size : 152 MiB (9%) Title : Japanese Audio Writing library : libFLAC 20080709 (UTC 2008-07-09) Language : Japanese Default : Yes Forced : Yes Text ID : 3 Format : ASS Codec ID : S_TEXT/ASS Codec ID/Info : Advanced Sub Station Alpha Duration : 34 min 5 s Bit rate : 5 295 b/s Count of elements : 2054 Compression mode : Lossless Stream size : 1.29 MiB (0%) Title : English Subtitles [Komorebi] Language : English Default : Yes Forced : No Menu 00:00:00.000 : :Intro 00:01:38.098 : :OP 00:03:08.188 : :Part A 00:14:58.898 : :Part B 00:32:48.962 : :ED ```

File list

vin

User
whoa... thank you very much.. looking so far this is the best i could find.. :D
well done, Senpai 🙂 thanks.
Nice i was waiting for this
any info on vivid-asenshi whether they'll be doing this episode or not?

Ren

User
vivid-asenshi please save us
Thank you so much

Ren

User
Just watched it and it was worth it. Thanks for the release.
Thank you very much <3