[Neutrinome] Kimi ni Todoke (S1 + S2 + OAV) - VOSTFR [1080p BDRip FLAC] + DDL

Category:
Date:
2018-07-13 17:02 UTC
Submitter:
Seeders:
1
Information:
Leechers:
1
File size:
34.0 GiB
Completed:
225
Info hash:
14c26c67822f6b4d19fcaf10535fe803ea5c103d
Kimi ni Todoke ====== *** ![alt text](https://fanart.tv/fanart/tv/117801/tvposter/kimi-ni-todoke-538b140f7571e.jpg) *** * **Date de sortie** : 2009-2011 * **Durée** : 38*23min * **Licencié** : Black-Box * **Vidéo** : tlacatlc6 * **Sous-titre** : AnimeYum (S1) + Requiem (S2 + OAV) * **Lien DDL** : [Uptobox](https://uptobox.com/ne184r7vjjjq) *** **NFO** General Unique ID : 75389069990151230512029351489565849852 (0x38B7681FF0705EF446CDA9D367F378FC) Format : Matroska Format version : Version 4 / Version 2 File size : 998 MiB Duration : 22 min 36 s Overall bit rate mode : Variable Overall bit rate : 6 173 kb/s Movie name : Kimi.ni.Todoke : Episode 01 BD 720p By JMS Encoded date : UTC 2018-02-21 16:49:17 Writing application : mkvmerge v20.0.0 ('I Am The Sun') 32-bit Writing library : libebml v1.3.5 + libmatroska v1.4.8 Attachments : MyriadWebPro-Condensed.ttf / andlso.ttf / brrc___0.TTC / budhand.TTF / DiverdaSansCom-Medium.ttf / Filmcrypob.ttf / Filmcryptic.ttf / gishabd.ttf / HGRPP1.TTC / yonder.ttf Video ID : 2 Format : AVC Format/Info : Advanced Video Codec Format profile : High@L4 Format settings, CABAC : Yes Format settings, RefFrames : 4 frames Codec ID : V_MPEG4/ISO/AVC Duration : 22 min 36 s Bit rate : 4 726 kb/s Width : 1 920 pixels Height : 1 080 pixels Display aspect ratio : 16:9 Frame rate mode : Constant Frame rate : 23.976 (24000/1001) FPS Color space : YUV Chroma subsampling : 4:2:0 Bit depth : 8 bits Scan type : Progressive Bits/(Pixel*Frame) : 0.095 Stream size : 764 MiB (77%) Writing library : x264 core 112 Encoding settings : cabac=1 / ref=3 / deblock=1:1:1 / analyse=0x3:0x133 / me=umh / subme=9 / psy=1 / psy_rd=0.40:0.00 / mixed_ref=1 / me_range=24 / chroma_me=1 / trellis=1 / 8x8dct=1 / cqm=0 / deadzone=21,11 / fast_pskip=1 / chroma_qp_offset=-2 / threads=6 / sliced_threads=0 / nr=0 / decimate=1 / interlaced=0 / constrained_intra=0 / bframes=3 / b_pyramid=2 / b_adapt=2 / b_bias=0 / direct=3 / weightb=1 / open_gop=0 / weightp=2 / keyint=240 / keyint_min=23 / scenecut=40 / intra_refresh=0 / rc_lookahead=50 / rc=crf / mbtree=1 / crf=16.0 / qcomp=0.60 / qpmin=3 / qpmax=51 / qpstep=4 / ip_ratio=1.40 / aq=1:0.60 Language : Japanese Default : Yes Forced : No Color range : Limited Color primaries : BT.709 Transfer characteristics : BT.709 Matrix coefficients : BT.709 Audio ID : 3 Format : FLAC Format/Info : Free Lossless Audio Codec Codec ID : A_FLAC Duration : 22 min 36 s Bit rate mode : Variable Bit rate : 1 406 kb/s Channel(s) : 2 channels Channel positions : Front: L R Sampling rate : 48.0 kHz Frame rate : 11.719 FPS (4096 SPF) Bit depth : 24 bits Stream size : 227 MiB (23%) Writing library : libFLAC 1.2.1 (UTC 2007-09-17) Language : Japanese Default : Yes Forced : No Text ID : 1 Format : ASS Codec ID : S_TEXT/ASS Codec ID/Info : Advanced Sub Station Alpha Duration : 21 min 32 s Bit rate : 156 b/s Count of elements : 340 Compression mode : Lossless Stream size : 24.7 KiB (0%) Title : Vostfr [ASS] Team " AnimeYum " Language : French Default : Yes Forced : No Menu 00:00:00.000 : en:Opening 00:01:00.143 : en:Part A 00:11:34.068 : en:Part B 00:21:15.023 : en:Ending 00:22:25.093 : en:Preview

File list

  • [Neutrinome] Kimi ni Todoke - VOSTFR [1080p BDRip FLAC]
    • Saison 1
      • Kimi ni Todoke - S1 E01 - VOSTFR [1080p BDRip FLAC].mkv (998.1 MiB)
      • Kimi ni Todoke - S1 E02 - VOSTFR [1080p BDRip FLAC].mkv (919.3 MiB)
      • Kimi ni Todoke - S1 E03 - VOSTFR [1080p BDRip FLAC].mkv (862.1 MiB)
      • Kimi ni Todoke - S1 E04 - VOSTFR [1080p BDRip FLAC].mkv (918.3 MiB)
      • Kimi ni Todoke - S1 E05 - VOSTFR [1080p BDRip FLAC].mkv (873.6 MiB)
      • Kimi ni Todoke - S1 E06 - VOSTFR [1080p BDRip FLAC].mkv (874.0 MiB)
      • Kimi ni Todoke - S1 E07 - VOSTFR [1080p BDRip FLAC].mkv (922.0 MiB)
      • Kimi ni Todoke - S1 E08 - VOSTFR [1080p BDRip FLAC].mkv (924.0 MiB)
      • Kimi ni Todoke - S1 E09 - VOSTFR [1080p BDRip FLAC].mkv (800.9 MiB)
      • Kimi ni Todoke - S1 E10 - VOSTFR [1080p BDRip FLAC].mkv (1.0 GiB)
      • Kimi ni Todoke - S1 E11 - VOSTFR [1080p BDRip FLAC].mkv (987.6 MiB)
      • Kimi ni Todoke - S1 E12 - VOSTFR [1080p BDRip FLAC].mkv (942.2 MiB)
      • Kimi ni Todoke - S1 E13 - VOSTFR [1080p BDRip FLAC].mkv (942.8 MiB)
      • Kimi ni Todoke - S1 E14 - VOSTFR [1080p BDRip FLAC].mkv (1010.4 MiB)
      • Kimi ni Todoke - S1 E15 - VOSTFR [1080p BDRip FLAC].mkv (942.4 MiB)
      • Kimi ni Todoke - S1 E16 - VOSTFR [1080p BDRip FLAC].mkv (932.2 MiB)
      • Kimi ni Todoke - S1 E17 - VOSTFR [1080p BDRip FLAC].mkv (943.6 MiB)
      • Kimi ni Todoke - S1 E18 - VOSTFR [1080p BDRip FLAC].mkv (913.4 MiB)
      • Kimi ni Todoke - S1 E19 - VOSTFR [1080p BDRip FLAC].mkv (804.2 MiB)
      • Kimi ni Todoke - S1 E20 - VOSTFR [1080p BDRip FLAC].mkv (823.4 MiB)
      • Kimi ni Todoke - S1 E21 - VOSTFR [1080p BDRip FLAC].mkv (804.2 MiB)
      • Kimi ni Todoke - S1 E22 - VOSTFR [1080p BDRip FLAC].mkv (844.3 MiB)
      • Kimi ni Todoke - S1 E23 - VOSTFR [1080p BDRip FLAC].mkv (1.1 GiB)
      • Kimi ni Todoke - S1 E24 - VOSTFR [1080p BDRip FLAC].mkv (1.1 GiB)
      • Kimi ni Todoke - S1 E25 - VOSTFR [1080p BDRip FLAC].mkv (1.3 GiB)
    • Saison 2
      • Kimi ni Todoke - S2 E00 - VOSTFR [1080p BDRip FLAC].mkv (938.9 MiB)
      • Kimi ni Todoke - S2 E01 - VOSTFR [1080p BDRip FLAC].mkv (841.3 MiB)
      • Kimi ni Todoke - S2 E02 - VOSTFR [1080p BDRip FLAC].mkv (837.4 MiB)
      • Kimi ni Todoke - S2 E03 - VOSTFR [1080p BDRip FLAC].mkv (921.8 MiB)
      • Kimi ni Todoke - S2 E04 - VOSTFR [1080p BDRip FLAC].mkv (856.1 MiB)
      • Kimi ni Todoke - S2 E05 - VOSTFR [1080p BDRip FLAC].mkv (897.1 MiB)
      • Kimi ni Todoke - S2 E06 - VOSTFR [1080p BDRip FLAC].mkv (871.8 MiB)
      • Kimi ni Todoke - S2 E07 - VOSTFR [1080p BDRip FLAC].mkv (846.9 MiB)
      • Kimi ni Todoke - S2 E08 - VOSTFR [1080p BDRip FLAC].mkv (823.7 MiB)
      • Kimi ni Todoke - S2 E09 - VOSTFR [1080p BDRip FLAC].mkv (761.6 MiB)
      • Kimi ni Todoke - S2 E10 - VOSTFR [1080p BDRip FLAC].mkv (900.5 MiB)
      • Kimi ni Todoke - S2 E11 - VOSTFR [1080p BDRip FLAC].mkv (868.5 MiB)
      • Kimi ni Todoke - S2 E12 - VOSTFR [1080p BDRip FLAC].mkv (881.4 MiB)
Pourquoi choisir du fansub miteux alors qu'il existe la traduction de Blackbox... ?