[Mushin] Nanatsu no Bitoku Special 01 (11) (BD 720p Hi10 AAC).mkv

Category:
Date:
2018-07-12 23:53 UTC
Submitter:
Anonymous
Seeders:
17
Information:
No information.
Leechers:
0
File size:
77.5 MiB
Completed:
416
Info hash:
f3d86c505fac5a24574022770e7466f86214f8af
Hi-Fan Anime warning This anime come to Special 1-2 form Bd unfortunately Don’t have real fan subbed. I make Hobby Sub Eng to watch for myself and share Free soft subbed for someone want edit. Of course I translation By tools all (Google ,Web dictionary,other) maybe wrong Grammar I take some sentence form manga that mean same or nearby anime. So please don’t expect quality " This is Hobby Sub" then enough watch Anime for Understand. I translated by my understand. I guess some sentence. " I hope real fan-sub to improve to best." Sorry for any inaccuracies, English is not my first language. I Hope Fan Anime this Enjoy&Fun Who want download? go ahead. [Mushin] Nanatsu no Bitoku Special 01 (11) (BD 720p Hi10 AAC).mkv Video Credit : moscowgolem Bd with filter Shappen ID : 1 Format : AVC Format profile : High 10@L5.1 Format settings, RefFrames : 16 frames Duration : 4 min 37 s Bit rate : 2 081 kb/s Width : 1 280 pixels Height : 720 pixels Display aspect ratio : 16:9 Frame rate : 23.976 (24000/1001) FPS Bit depth : 10 bits Stream size : 68.8 MiB (89%) Format : AAC Format profile : LC Duration : 4 min 37 s Bit rate : 255 kb/s Channel(s) : 2 channels Stream size : 8.44 MiB (11%) Sub Format : ASS Title : Mushin Language : English

File list

  • [Mushin] Nanatsu no Bitoku Special 01 (11) (BD 720p Hi10 AAC).mkv (77.5 MiB)

Comments - 7

Thank you for your hard work. I appreciate the effort you've put into this. I know a lot of other people do too, but Americans in particular can be lazy assholes, and won't take the time to thank you for it.
Any chance you can also sub the specials of Sin Nanatsu no Taizai/7 deadly sins as well?
Thanks for the hard work. @fozzibab not all american can be lazy assholes, only one :-)