[Komorebi-raws] Violet Evergarden 14 - OVA [BD AVC RAW]

Category:
Date:
2018-07-09 13:16 UTC
Submitter:
Seeders:
3
Information:
#komorebi @ irc.rizon.net
Leechers:
0
File size:
9.4 GiB
Completed:
503
Info hash:
8fbd128a37a344a6816e362a4563582c89c37a9f
Remuxed RAW OVA with japanese subtitles (from bluray 4). Mediainfo: ``` General Unique ID : 293459303033849770110115077176952746099 (0xDCC634B6FD2C6CF2F01B0CDB513DF073) Complete name : Violet Evergarden 14 - OVA [RAW]\Violet Evergarden 14 - OVA [RAW].mkv Format : Matroska Format version : Version 4 / Version 2 File size : 9.38 GiB Duration : 34 min 14 s Overall bit rate mode : Variable Overall bit rate : 39.2 Mb/s Movie name : Violet Evergarden 14 - OVA Encoded date : UTC 2018-07-08 06:00:58 Writing application : mkvmerge v23.0.0 ('The Bride Said No') 64-bit Writing library : libebml v1.3.6 + libmatroska v1.4.9 Video ID : 3 Format : AVC Format/Info : Advanced Video Codec Format profile : High@L4.1 Format settings : CABAC / 4 Ref Frames Format settings, CABAC : Yes Format settings, RefFrames : 4 frames Codec ID : V_MPEG4/ISO/AVC Duration : 34 min 14 s Bit rate mode : Variable Bit rate : 36.5 Mb/s Maximum bit rate : 38.0 Mb/s Width : 1 920 pixels Height : 1 080 pixels Display aspect ratio : 16:9 Frame rate mode : Constant Frame rate : 23.976 (24000/1001) FPS Color space : YUV Chroma subsampling : 4:2:0 Bit depth : 8 bits Scan type : Progressive Bits/(Pixel*Frame) : 0.734 Stream size : 8.72 GiB (93%) Title : Episode Language : Japanese Default : Yes Forced : Yes Audio #1 ID : 1 Format : FLAC Format/Info : Free Lossless Audio Codec Codec ID : A_FLAC Duration : 34 min 14 s Bit rate mode : Variable Bit rate : 1 376 kb/s Channel(s) : 2 channels Channel positions : Front: L R Sampling rate : 48.0 kHz Frame rate : 10.417 FPS (4608 SPF) Bit depth : 24 bits Stream size : 337 MiB (4%) Title : Audio Writing library : libFLAC 1.3.2 (UTC 2017-01-01) Language : Japanese Default : Yes Forced : Yes Audio #2 ID : 2 Format : FLAC Format/Info : Free Lossless Audio Codec Codec ID : A_FLAC Duration : 34 min 14 s Bit rate mode : Variable Bit rate : 1 235 kb/s Channel(s) : 2 channels Channel positions : Front: L R Sampling rate : 48.0 kHz Frame rate : 10.417 FPS (4608 SPF) Bit depth : 24 bits Stream size : 302 MiB (3%) Title : Commentary Writing library : libFLAC 1.3.2 (UTC 2017-01-01) Language : Japanese Default : No Forced : No Text ID : 4 Format : PGS Muxing mode : zlib Codec ID : S_HDMV/PGS Codec ID/Info : Picture based subtitle format used on BDs/HD-DVDs Duration : 34 min 8 s Bit rate : 287 kb/s Count of elements : 3477 Stream size : 70.1 MiB (1%) Title : Japanese Subtitles Language : Japanese Default : Yes Forced : No ```

File list

Finally, it's here! The Songstress Aria here I come!
Asenshi-sama please save us.
Hey bro can I get the small size OVA less than 1GB
If you can encode it less than 1GB please bro. I can't download files greater than 1GB.
Can I get subtitle file on paste bin or any site hosting links Please Forget I 1GB file Please give me subtitle file. Thanks a lot for your efforts
Kombirie Sama link of subtitles file please
I mean the raw subtitle that you remux with this video thanks
@7DeadlySiner Just edit your post instead of flooding the comments with a bunch of posts. You get about 1 hour of edit time. Thanks. EDIT: Too late now. I now hope the uploader ignores your request for flooding the comment section, you should know better.
I like BDremux XD