[Neutrinome] Isshuukan Friends. - VOSTFR [1080p BDRip FLAC] + DDL

Category:
Date:
2018-07-04 11:17 UTC
Submitter:
Seeders:
3
Information:
Leechers:
1
File size:
15.7 GiB
Completed:
97
Info hash:
7cd02f31917f1c944274d23b2b173010f81f9d3d
Isshuukan Friends. ====== *** ![alt text](https://images-na.ssl-images-amazon.com/images/I/91lujpgBgBL._SL1500_.jpg) *** * **Date de sortie** : 2014 * **Durée** : 12*23min * **Licencié** : Non * **Vidéo** : Beatrice-Raws * **Sous-titre** : Chuushin no Fansub * **Lien DDL** : [Uptobox](https://uptobox.com/p5l4cq24fbiy) *** **NFO** General Unique ID : 236255444174574399790416743204367724326 (0xB1BD24B8E11015F8AD15D1BABADD6F26) Format : Matroska Format version : Version 4 / Version 2 File size : 1.14 GiB Duration : 23 min 42 s Overall bit rate mode : Variable Overall bit rate : 6 877 kb/s Movie name : Isshuukan Friends - 01 - Beginning of a Friendship. Encoded date : UTC 2018-04-01 14:46:15 Writing application : mkvmerge v20.0.0 ('I Am The Sun') 32-bit Writing library : libebml v1.3.5 + libmatroska v1.4.8 Attachments : Amienne.ttf / Change Tomorrow Today.ttf / Delicious-Bold.otf / Delicious-BoldItalic.otf / Jayneprint.ttf / KylesHand Regular.ttf / NewBaskerville.ttf / PPETRIAL.otf / Rosango Bold.ttf / SWZ721H.ttf / SWZ721M.ttf / VERONI_H.ttf / weblysleekuisl.ttf / calibri_8.ttf / euphemia_7.ttf / Houschka Rounded Thin_0.ttf / STEINEMU_3.ttf / arial.ttf / BLACKJAR.TTF Video ID : 1 Format : AVC Format/Info : Advanced Video Codec Format profile : High 10@L5 Format settings, CABAC : Yes Format settings, RefFrames : 4 frames Codec ID : V_MPEG4/ISO/AVC Duration : 23 min 42 s Bit rate : 5 924 kb/s Width : 1 920 pixels Height : 1 080 pixels Display aspect ratio : 16:9 Frame rate mode : Constant Frame rate : 23.976 (24000/1001) FPS Color space : YUV Chroma subsampling : 4:2:0 Bit depth : 10 bits Scan type : Progressive Bits/(Pixel*Frame) : 0.119 Stream size : 1 004 MiB (86%) Title : BDRip by DJATOM Writing library : x264 core 142 (DJATOM's build) Encoding settings : cabac=1 / ref=4 / deblock=1:1:-1 / analyse=0x3:0x113 / me=umh / subme=9 / psy=1 / psy_rd=1.00:0.00 / mixed_ref=1 / me_range=32 / chroma_me=1 / trellis=2 / 8x8dct=1 / cqm=0 / deadzone=21,11 / fast_pskip=1 / chroma_qp_offset=-2 / threads=6 / lookahead_threads=1 / sliced_threads=0 / nr=0 / decimate=1 / interlaced=0 / bluray_compat=0 / constrained_intra=0 / bframes=9 / b_pyramid=2 / b_adapt=2 / b_bias=0 / direct=1 / weightb=1 / open_gop=0 / weightp=2 / keyint=240 / keyint_min=24 / scenecut=40 / intra_refresh=0 / rc=crf / mbtree=0 / crf=16.0000 / qcomp=0.72 / qpmin=0 / qpmax=81 / qpstep=4 / ip_ratio=1.40 / pb_ratio=1.30 / aq=1:0.85 Language : Japanese Default : Yes Forced : No Color range : Limited Color primaries : BT.709 Transfer characteristics : BT.709 Matrix coefficients : BT.709 Audio ID : 2 Format : FLAC Format/Info : Free Lossless Audio Codec Codec ID : A_FLAC Duration : 23 min 42 s Bit rate mode : Variable Bit rate : 926 kb/s Channel(s) : 2 channels Channel positions : Front: L R Sampling rate : 48.0 kHz Frame rate : 11.719 FPS (4096 SPF) Bit depth : 24 bits Stream size : 157 MiB (13%) Writing library : libFLAC 1.3.0 (UTC 2013-05-26) Language : Japanese Default : Yes Forced : No Text ID : 3 Format : ASS Codec ID : S_TEXT/ASS Codec ID/Info : Advanced Sub Station Alpha Duration : 23 min 32 s Bit rate : 4 300 b/s Count of elements : 4296 Compression mode : Lossless Stream size : 741 KiB (0%) Title : Français [C-N-F] Language : French Default : Yes Forced : No Menu 00:00:00.000 : fr:Intro 00:01:29.005 : fr:Opening 00:02:59.053 : fr:Partie 1 00:12:44.096 : fr:Partie 2 00:21:36.086 : fr:Ending 00:23:27.072 : fr:Preview

File list

  • [Neutrinome] Isshuukan Friends. - VOSTFR [1080p BDRip FLAC]
    • EXTRA
      • [C-N-F] Isshuukan Friends. S0 - 01 - VOSTFR [1080p BDRip FLAC].mkv (78.9 MiB)
      • [C-N-F] Isshuukan Friends. S0 - 02 - VOSTFR [1080p BDRip FLAC].mkv (39.8 MiB)
      • [C-N-F] Isshuukan Friends. S0 - 03 - VOSTFR [1080p BDRip FLAC].mkv (40.2 MiB)
      • [C-N-F] Isshuukan Friends. S0 - 04 - VOSTFR [1080p BDRip FLAC].mkv (46.8 MiB)
      • [C-N-F] Isshuukan Friends. S0 - 05 - VOSTFR [1080p BDRip FLAC].mkv (36.8 MiB)
      • [C-N-F] Isshuukan Friends. S0 - 06 - VOSTFR [1080p BDRip FLAC].mkv (37.1 MiB)
      • [C-N-F] Isshuukan Friends. S0 - 07 - VOSTFR [1080p BDRip FLAC].mkv (34.0 MiB)
      • [C-N-F] Isshuukan Friends. S0 - 08 - VOSTFR [1080p BDRip FLAC].mkv (33.5 MiB)
      • [C-N-F] Isshuukan Friends. S0 - 09 - VOSTFR [1080p BDRip FLAC].mkv (50.8 MiB)
      • [C-N-F] Isshuukan Friends. S0 - 10 - VOSTFR [1080p BDRip FLAC].mkv (30.1 MiB)
      • [C-N-F] Isshuukan Friends. S0 - 11 - VOSTFR [1080p BDRip FLAC].mkv (36.0 MiB)
      • [C-N-F] Isshuukan Friends. S0 - 12 - VOSTFR [1080p BDRip FLAC].mkv (33.3 MiB)
    • Saison 1
      • Isshuukan Friends. - 01 - VOSTFR [1080p BDRip FLAC].mkv (1.1 GiB)
      • Isshuukan Friends. - 02 - VOSTFR [1080p BDRip FLAC].mkv (1.2 GiB)
      • Isshuukan Friends. - 03 - VOSTFR [1080p BDRip FLAC].mkv (1.2 GiB)
      • Isshuukan Friends. - 04 - VOSTFR [1080p BDRip FLAC].mkv (1.3 GiB)
      • Isshuukan Friends. - 05 - VOSTFR [1080p BDRip FLAC].mkv (1.2 GiB)
      • Isshuukan Friends. - 06 - VOSTFR [1080p BDRip FLAC].mkv (1.2 GiB)
      • Isshuukan Friends. - 07 - VOSTFR [1080p BDRip FLAC].mkv (1.3 GiB)
      • Isshuukan Friends. - 08 - VOSTFR [1080p BDRip FLAC].mkv (1.5 GiB)
      • Isshuukan Friends. - 09 - VOSTFR [1080p BDRip FLAC].mkv (1.4 GiB)
      • Isshuukan Friends. - 10 - VOSTFR [1080p BDRip FLAC].mkv (1.2 GiB)
      • Isshuukan Friends. - 11 - VOSTFR [1080p BDRip FLAC].mkv (1.3 GiB)
      • Isshuukan Friends. - 12 - VOSTFR [1080p BDRip FLAC].mkv (1.1 GiB)
      • Isshuukan Friends. Clean ED [BD 1080p 10bit FLAC].mkv (88.5 MiB)
      • Isshuukan Friends. Clean OP [BD 1080p 10bit FLAC].mkv (105.1 MiB)
Merci de nous proposer cette belle série et pour le beau travail de conversion en BD.