Ghost in the Shell (1995) [REMUX HDR 2160p] [MULTI HEVC DTS-HDMA x265]

Category:
Date:
2018-07-02 02:19 UTC
Submitter:
Anonymous
Seeders:
0
Information:
4K HDR JAP/FR SUB-FORCED
Leechers:
0
File size:
54.5 GiB
Completed:
39
Info hash:
92d7bf5de93bec4bc68ccfe003f25a8a01678c80
Complete name : Ghost in the Shell (1995) [REMUX HDR 2160p] [MULTI HEVC DTS-HDMA x265].mkv Format : Matroska Format version : Version 4 / Version 2 File size : 54.5 GiB Duration : 1 h 22 min Overall bit rate : 94.4 Mb/s Movie name : Ghost in the Shell (1995) Encoded date : UTC 2018-07-02 01:26:44 Writing application : mkvmerge v22.0.0 ('At The End Of The World') 64-bit Writing library : libebml v1.3.5 + libmatroska v1.4.8 Video ID : 1 Format : HEVC Format/Info : High Efficiency Video Coding Commercial name : HDR10 Format profile : Main 10@L5.1@High Codec ID : V_MPEGH/ISO/HEVC Duration : 1 h 22 min Bit rate : 90.0 Mb/s Width : 3 840 pixels Height : 2 160 pixels Display aspect ratio : 16:9 Frame rate mode : Constant Frame rate : 23.976 (24000/1001) FPS Color space : YUV Chroma subsampling : 4:2:0 (Type 2) Bit depth : 10 bits Bits/(Pixel*Frame) : 0.453 Stream size : 52.0 GiB (95%) Default : Yes Forced : No Color range : Limited Color primaries : BT.2020 Transfer characteristics : PQ Matrix coefficients : BT.2020 non-constant Mastering display color primaries : BT.709 Mastering display luminance : min: 0.0050 cd/m2, max: 1000 cd/m2 Maximum Content Light Level : 873 cd/m2 Maximum Frame-Average Light Level : 271 cd/m2 Audio #1 ID : 2 Format : DTS Format/Info : Digital Theater Systems Format profile : MA / Core Codec ID : A_DTS Duration : 1 h 22 min Bit rate mode : Variable / Constant Bit rate : 2 129 kb/s / 1 152 kb/s Channel(s) : 6 channels Channel positions : Front: L C R, Side: L R, LFE Sampling rate : 48.0 kHz Frame rate : 93.750 FPS (512 SPF) Bit depth : 16 bits Compression mode : Lossless / Lossy Delay relative to video : 1 s 350 ms Stream size : 1.23 GiB (2%) Title : DTS-HD Master Audio 5.1 @2129 Kbps Language : Japanese Default : No Forced : No Audio #2 ID : 3 Format : DTS Format/Info : Digital Theater Systems Format profile : MA / Core Codec ID : A_DTS Duration : 1 h 22 min Bit rate mode : Variable / Constant Bit rate : 2 246 kb/s / 1 509 kb/s Channel(s) : 6 channels Channel positions : Front: L C R, Side: L R, LFE Sampling rate : 48.0 kHz Frame rate : 93.750 FPS (512 SPF) Bit depth : 24 bits Compression mode : Lossless / Lossy Delay relative to video : 1 s 350 ms Stream size : 1.30 GiB (2%) Title : (VFF) DTS-HD Master Audio 5.1 @2246 Kbps Language : French Default : Yes Forced : Yes Text #1 ID : 4 Format : UTF-8 Codec ID : S_TEXT/UTF8 Codec ID/Info : UTF-8 Plain Text Duration : 1 h 17 min Bit rate : 55 b/s Count of elements : 732 Stream size : 31.3 KiB (0%) Title : FR - COMPLETE (.SRT) Language : French Default : No Forced : No Text #2 ID : 5 Format : UTF-8 Codec ID : S_TEXT/UTF8 Codec ID/Info : UTF-8 Plain Text Duration : 2 s 960 ms Bit rate : 129 b/s Count of elements : 2 Stream size : 48.0 Bytes (0%) Title : FR - FORCED (.SRT) Language : French Default : Yes Forced : Yes Menu 00:00:00.000 : en:Chapter 1 00:04:06.120 : en:Chapter 2 00:08:24.754 : en:Chapter 3 00:13:15.169 : en:Chapter 4 00:24:17.706 : en:Chapter 5 00:26:05.146 : en:Chapter 6 00:27:40.158 : en:Chapter 7 00:33:02.981 : en:Chapter 8 00:36:21.512 : en:Chapter 9 00:45:32.271 : en:Chapter 10 00:53:59.486 : en:Chapter 11 00:59:40.326 : en:Chapter 12 01:06:24.355 : en:Chapter 13 01:13:58.434 : en:Chapter 14 01:17:31.438 : en:Chapter 15 01:22:41.957 : en:Chapter 16

File list

  • Ghost in the Shell (1995) [REMUX HDR 2160p] [MULTI HEVC DTS-HDMA x265].mkv (54.5 GiB)
Is this a new transfer or just an upscale of the previous BD masters? If it's the latter, what's the point of 4K if they're still using the same old shitty/blurry transfer?
the point is some idiots buy it even though it's still the same old shitty transfer
Is this the original version or 2.0? And before somebody attempts to behead my head, yes i realize it says (1995), but still, i have to make sure before i start downloading a 50 gb file. Anyway, thank you very much for this upload. I own several editions of this film allready, but all on DVD, so i have zero qualms in regards to downloading bd version. i have literally spent over many moneys on this franchise. much love