[SCP-2223] Sanzoku no Musume Ronja [Blu-ray 1080p h264 FLAC]

Category:
Date:
2018-07-01 18:02 UTC
Submitter:
Seeders:
6
Information:
Leechers:
0
File size:
38.5 GiB
Completed:
375
Info hash:
d6034313fe55b1d78ad010f81221a1fd79190db4
Contains LowPower-Raws with sync'd Anime-Koi softsubs. Episodes 1 and 2 were manually sync'd and fixed from a split Anime-Koi 01-02 release, including OP and ED. Episode 2 has the "last episode recap" lines not translated. Episodes 25 and 26 have a commentary track. ``` General Unique ID : 28121044183293754097956738320053519460 (0x1527EA85EC4FAEF158EC988B1AEF4464) Complete name : [SCP-2223] Sanzoku no Musume Ronja - 01 [Blu-ray 1080p h264 FLAC][CF722C5A].mkv Format : Matroska Format version : Version 4 / Version 2 File size : 1.53 GiB Duration : 25 min 2 s Overall bit rate mode : Variable Overall bit rate : 8 744 kb/s Movie name : [SCP-2223] Sanzoku no Musume Ronja - 01 [Blu-ray 1080p h264 FLAC] Encoded date : UTC 2018-07-01 14:42:54 Writing application : mkvmerge v21.0.0 ('Tardigrades Will Inherit The Earth') 64-bit Writing library : libebml v1.3.5 + libmatroska v1.4.8 Attachments : nyala.TTF / Alberta_Regular.ttf / ALBR85W.TTF / Aller.ttf / Aller_BdIt.ttf / Bolton_0.ttf / Bolton_sans.ttf / DerringerAntique-Xbold.ttf / DURALITH.ttf Video ID : 1 Format : AVC Format/Info : Advanced Video Codec Format profile : High@L5 Format settings : CABAC / 10 Ref Frames Format settings, CABAC : Yes Format settings, ReFrames : 10 frames Codec ID : V_MPEG4/ISO/AVC Duration : 25 min 2 s Bit rate : 8 053 kb/s Width : 1 920 pixels Height : 1 080 pixels Display aspect ratio : 16:9 Frame rate mode : Constant Frame rate : 23.976 (24000/1001) FPS Color space : YUV Chroma subsampling : 4:2:0 Bit depth : 8 bits Scan type : Progressive Bits/(Pixel*Frame) : 0.162 Stream size : 1.41 GiB (92%) Writing library : x264 core 152 r2851+45 9658d1a 7mod [8-bit@all X86_64] Encoding settings : cabac=1 / ref=10 / deblock=1:0:0 / analyse=0x3:0x113 / me=umh / subme=9 / psy=1 / fade_compensate=0.00 / psy_rd=0.80:0.25 / mixed_ref=1 / me_range=32 / chroma_me=1 / trellis=1 / 8x8dct=1 / cqm=0 / deadzone=21,11 / fast_pskip=0 / chroma_qp_offset=-4 / threads=12 / lookahead_threads=1 / sliced_threads=0 / nr=0 / decimate=1 / interlaced=0 / bluray_compat=0 / constrained_intra=0 / fgo=0 / bframes=8 / b_pyramid=2 / b_adapt=1 / b_bias=0 / direct=1 / weightb=1 / open_gop=0 / weightp=2 / keyint=250 / keyint_min=23 / scenecut=40 / intra_refresh=0 / rc_lookahead=70 / rc=crf / mbtree=1 / crf=17.0000 / qcomp=0.60 / qpmin=0:0:0 / qpmax=69:69:69 / qpstep=4 / ip_ratio=1.40 / aq=3:0.80 / aq-sensitivity=10.00 / aq-factor=1.00:1.00:1.00 / aq2=0 / aq3=0 Language : Japanese Default : Yes Forced : No Audio ID : 2 Format : FLAC Format/Info : Free Lossless Audio Codec Codec ID : A_FLAC Duration : 25 min 2 s Bit rate mode : Variable Bit rate : 683 kb/s Channel(s) : 2 channels Channel positions : Front: L R Sampling rate : 48.0 kHz Frame rate : 11.719 FPS (4096 SPF) Bit depth : 16 bits Stream size : 122 MiB (8%) Writing library : libFLAC 1.2.1 (UTC 2007-09-17) Language : Japanese Default : Yes Forced : No Text ID : 3 Format : ASS Codec ID : S_TEXT/ASS Codec ID/Info : Advanced Sub Station Alpha Duration : 24 min 59 s Bit rate : 243 b/s Count of elements : 434 Compression mode : Lossless Stream size : 44.7 KiB (0%) Title : Anime-Koi Language : English Default : Yes Forced : No ```

File list

  • [SCP-2223] Sanzoku no Musume Ronja [Blu-ray 1080p h264 FLAC]
    • [SCP-2223] Sanzoku no Musume Ronja - 01 [Blu-ray 1080p h264 FLAC][CF722C5A].mkv (1.5 GiB)
    • [SCP-2223] Sanzoku no Musume Ronja - 02 [Blu-ray 1080p h264 FLAC][ABB3E5B9].mkv (1.5 GiB)
    • [SCP-2223] Sanzoku no Musume Ronja - 03 [Blu-ray 1080p h264 FLAC][8F7A3B2D].mkv (1.8 GiB)
    • [SCP-2223] Sanzoku no Musume Ronja - 04 [Blu-ray 1080p h264 FLAC][EF9F60D3].mkv (1.5 GiB)
    • [SCP-2223] Sanzoku no Musume Ronja - 05 [Blu-ray 1080p h264 FLAC][0D4F0F94].mkv (1.4 GiB)
    • [SCP-2223] Sanzoku no Musume Ronja - 06 [Blu-ray 1080p h264 FLAC][B1FE1536].mkv (1.4 GiB)
    • [SCP-2223] Sanzoku no Musume Ronja - 07 [Blu-ray 1080p h264 FLAC][C551BDC4].mkv (1.4 GiB)
    • [SCP-2223] Sanzoku no Musume Ronja - 08 [Blu-ray 1080p h264 FLAC][04482E30].mkv (1.6 GiB)
    • [SCP-2223] Sanzoku no Musume Ronja - 09 [Blu-ray 1080p h264 FLAC][10D912FC].mkv (1.4 GiB)
    • [SCP-2223] Sanzoku no Musume Ronja - 10 [Blu-ray 1080p h264 FLAC][13496832].mkv (1.4 GiB)
    • [SCP-2223] Sanzoku no Musume Ronja - 11 [Blu-ray 1080p h264 FLAC][6507D399].mkv (1.2 GiB)
    • [SCP-2223] Sanzoku no Musume Ronja - 12 [Blu-ray 1080p h264 FLAC][B967C41D].mkv (1.2 GiB)
    • [SCP-2223] Sanzoku no Musume Ronja - 13 [Blu-ray 1080p h264 FLAC][038CF6A4].mkv (1.5 GiB)
    • [SCP-2223] Sanzoku no Musume Ronja - 14 [Blu-ray 1080p h264 FLAC][8118F36F].mkv (1.7 GiB)
    • [SCP-2223] Sanzoku no Musume Ronja - 15 [Blu-ray 1080p h264 FLAC][97CC9570].mkv (1.3 GiB)
    • [SCP-2223] Sanzoku no Musume Ronja - 16 [Blu-ray 1080p h264 FLAC][B93D094B].mkv (1.4 GiB)
    • [SCP-2223] Sanzoku no Musume Ronja - 17 [Blu-ray 1080p h264 FLAC][496EF63B].mkv (1.4 GiB)
    • [SCP-2223] Sanzoku no Musume Ronja - 18 [Blu-ray 1080p h264 FLAC][36516DCA].mkv (1.5 GiB)
    • [SCP-2223] Sanzoku no Musume Ronja - 19 [Blu-ray 1080p h264 FLAC][78754877].mkv (1.6 GiB)
    • [SCP-2223] Sanzoku no Musume Ronja - 20 [Blu-ray 1080p h264 FLAC][7C052C00].mkv (1.7 GiB)
    • [SCP-2223] Sanzoku no Musume Ronja - 21 [Blu-ray 1080p h264 FLAC][D046F6CE].mkv (1.6 GiB)
    • [SCP-2223] Sanzoku no Musume Ronja - 22 [Blu-ray 1080p h264 FLAC][26CC4207].mkv (1.5 GiB)
    • [SCP-2223] Sanzoku no Musume Ronja - 23 [Blu-ray 1080p h264 FLAC][79C11519].mkv (1.5 GiB)
    • [SCP-2223] Sanzoku no Musume Ronja - 24 [Blu-ray 1080p h264 FLAC][DF33426A].mkv (1.4 GiB)
    • [SCP-2223] Sanzoku no Musume Ronja - 25 [Blu-ray 1080p h264 FLAC][282B552E].mkv (1.6 GiB)
    • [SCP-2223] Sanzoku no Musume Ronja - 26 [Blu-ray 1080p h264 FLAC][3EA6E157].mkv (1.5 GiB)