[SCP-2223] Pop Team Epic [Blu-ray 1080p h264-10bit FLAC]

Category:
Date:
2018-07-01 13:30 UTC
Submitter:
Seeders:
3
Information:
Leechers:
0
File size:
24.5 GiB
Completed:
661
Info hash:
f1d54dca0375675400ac377b33d9aedb0a6c3abb
Contains Beatrice-Raws raws with sync'd CR softsubs. ``` General Unique ID : 329044524668443626529185465434766235555 (0xF78BAB99684F0644BEC4A9D1D13ED7A3) Complete name : [SCP-2223] Pop Team Epic - 01 [Blu-ray 1080p h264-10bit FLAC][9E640C17].mkv Format : Matroska Format version : Version 4 / Version 2 File size : 1.68 GiB Duration : 23 min 44 s Overall bit rate mode : Variable Overall bit rate : 10.1 Mb/s Movie name : [SCP-2223] Pop Team Epic - 01 [Blu-ray 1080p h264-10bit FLAC] Encoded date : UTC 2018-07-01 12:14:30 Writing application : mkvmerge v19.0.0 ('Brave Captain') 64-bit Writing library : libebml v1.3.5 + libmatroska v1.4.8 Attachments : OpenSans-Semibold.ttf Video ID : 1 Format : AVC Format/Info : Advanced Video Codec Format profile : High 10@L5 Format settings : CABAC / 4 Ref Frames Format settings, CABAC : Yes Format settings, ReFrames : 4 frames Codec ID : V_MPEG4/ISO/AVC Duration : 23 min 43 s Bit rate : 8 801 kb/s Width : 1 920 pixels Height : 1 080 pixels Display aspect ratio : 16:9 Frame rate mode : Constant Frame rate : 23.976 (24000/1001) FPS Color space : YUV Chroma subsampling : 4:2:0 Bit depth : 10 bits Scan type : Progressive Bits/(Pixel*Frame) : 0.177 Stream size : 1.46 GiB (87%) Title : BDRip by DJATOM Writing library : x264 core 155 r2901M 7d0ff22 (DJATOM's mod) Encoding settings : cabac=1 / ref=4 / deblock=1:1:-1 / analyse=0x3:0x113 / me=umh / subme=9 / psy=1 / fade_compensate=0.00 / psy_rd=1.00:0.00 / mixed_ref=1 / me_range=32 / chroma_me=1 / trellis=2 / 8x8dct=1 / cqm=0 / deadzone=21,11 / fast_pskip=1 / chroma_qp_offset=-2 / threads=34 / lookahead_threads=5 / sliced_threads=0 / nr=0 / decimate=1 / interlaced=0 / bluray_compat=0 / constrained_intra=0 / bframes=9 / b_pyramid=2 / b_adapt=2 / b_bias=0 / direct=1 / weightb=1 / open_gop=0 / weightp=2 / keyint=250 / keyint_min=23 / scenecut=40 / intra_refresh=0 / rc=crf / mbtree=0 / crf=15.5000 / qcomp=0.72 / qpmin=0 / qpmax=81 / qpstep=4 / ip_ratio=1.40 / pb_ratio=1.30 / aq=1:0.85 Language : Japanese Default : Yes Forced : No Color range : Limited Color primaries : BT.709 Transfer characteristics : BT.709 Matrix coefficients : BT.709 Audio ID : 2 Format : FLAC Format/Info : Free Lossless Audio Codec Codec ID : A_FLAC Duration : 23 min 43 s Bit rate mode : Variable Bit rate : 1 314 kb/s Channel(s) : 2 channels Channel positions : Front: L R Sampling rate : 48.0 kHz Frame rate : 11.719 FPS (4096 SPF) Bit depth : 24 bits Stream size : 223 MiB (13%) Title : PCM->FLAC Writing library : libFLAC 1.3.2 (UTC 2017-01-01) Language : Japanese Default : Yes Forced : No Text ID : 3 Format : ASS Codec ID : S_TEXT/ASS Codec ID/Info : Advanced Sub Station Alpha Duration : 23 min 41 s Bit rate : 73 b/s Count of elements : 240 Compression mode : Lossless Stream size : 12.7 KiB (0%) Title : CR Language : English Default : Yes Forced : No ```

File list

  • [SCP-2223] Pop Team Epic [Blu-ray 1080p h264-10bit FLAC]
    • [SCP-2223] Pop Team Epic - 01 [Blu-ray 1080p h264-10bit FLAC][9E640C17].mkv (1.7 GiB)
    • [SCP-2223] Pop Team Epic - 02 [Blu-ray 1080p h264-10bit FLAC][5D238EF4].mkv (1.8 GiB)
    • [SCP-2223] Pop Team Epic - 03 [Blu-ray 1080p h264-10bit FLAC][FF024DA3].mkv (1.5 GiB)
    • [SCP-2223] Pop Team Epic - 04 [Blu-ray 1080p h264-10bit FLAC][5C97773B].mkv (2.8 GiB)
    • [SCP-2223] Pop Team Epic - 05 [Blu-ray 1080p h264-10bit FLAC][FECFB3D3].mkv (1.2 GiB)
    • [SCP-2223] Pop Team Epic - 06 [Blu-ray 1080p h264-10bit FLAC][15A8926B].mkv (1.3 GiB)
    • [SCP-2223] Pop Team Epic - 07 [Blu-ray 1080p h264-10bit FLAC][9EE2970C].mkv (1.6 GiB)
    • [SCP-2223] Pop Team Epic - 08 [Blu-ray 1080p h264-10bit FLAC][6C404776].mkv (3.7 GiB)
    • [SCP-2223] Pop Team Epic - 09 [Blu-ray 1080p h264-10bit FLAC][CFCC2DDA].mkv (3.6 GiB)
    • [SCP-2223] Pop Team Epic - 10 [Blu-ray 1080p h264-10bit FLAC][43654884].mkv (1.5 GiB)
    • [SCP-2223] Pop Team Epic - 11 [Blu-ray 1080p h264-10bit FLAC][5753F645].mkv (2.0 GiB)
    • [SCP-2223] Pop Team Epic - 12 [Blu-ray 1080p h264-10bit FLAC][34073F26].mkv (1.9 GiB)
Many thanks for you
Thanks , but CR/HS sub? Just no.