[SCP-2223] Sagrada Reset [Blu-ray 1080p h264 FLAC]

Category:
Date:
2018-07-01 12:30 UTC
Submitter:
Seeders:
1
Information:
Leechers:
0
File size:
29.2 GiB
Completed:
221
Info hash:
bb2673acbc55786d80539a320f7ea3ef6a08c39a
Contains Moozzi2 raws with sync'd GJM (eps 1-18) and HS (19-24) softsubs. ``` General Unique ID : 247314287364318884922213221698786547678 (0xBA0EFFC9AB3CCEB81A4358689B3BD7DE) Complete name : [SCP-2223] Sagrada Reset - 01 [Blu-ray 1080p h264 FLAC][F472C6DD].mkv Format : Matroska Format version : Version 4 / Version 2 File size : 1.06 GiB Duration : 25 min 12 s Overall bit rate mode : Variable Overall bit rate : 6 018 kb/s Movie name : [SCP-2223] Sagrada Reset - 01 [Blu-ray 1080p h264 FLAC] Encoded date : UTC 2018-07-01 11:24:59 Writing application : mkvmerge v19.0.0 ('Brave Captain') 64-bit Writing library : libebml v1.3.5 + libmatroska v1.4.8 Attachments : MATISSEMINORIPRO-DB.OTF / ASONGFORJENNIFER.TTF / GANDHISANS-BOLD.OTF / GANDHISANS-BOLDITALIC.OTF Video ID : 1 Format : AVC Format/Info : Advanced Video Codec Format profile : High@L5 Format settings : CABAC / 5 Ref Frames Format settings, CABAC : Yes Format settings, ReFrames : 5 frames Codec ID : V_MPEG4/ISO/AVC Duration : 25 min 12 s Bit rate : 5 335 kb/s Width : 1 920 pixels Height : 1 080 pixels Display aspect ratio : 16:9 Frame rate mode : Constant Frame rate : 23.976 (24000/1001) FPS Color space : YUV Chroma subsampling : 4:2:0 Bit depth : 8 bits Scan type : Progressive Bits/(Pixel*Frame) : 0.107 Stream size : 962 MiB (89%) Writing library : x264 core 152 r2851 ba24899 Encoding settings : cabac=1 / ref=5 / deblock=1:1:1 / analyse=0x3:0x113 / me=umh / subme=9 / psy=1 / psy_rd=1.00:0.00 / mixed_ref=1 / me_range=32 / chroma_me=1 / trellis=0 / 8x8dct=1 / cqm=0 / deadzone=21,11 / fast_pskip=0 / chroma_qp_offset=-2 / threads=24 / lookahead_threads=2 / sliced_threads=0 / nr=0 / decimate=1 / interlaced=0 / bluray_compat=0 / stitchable=1 / constrained_intra=0 / bframes=3 / b_pyramid=2 / b_adapt=2 / b_bias=0 / direct=1 / weightb=1 / open_gop=0 / weightp=1 / keyint=240 / keyint_min=23 / scenecut=40 / intra_refresh=0 / rc_lookahead=40 / rc=crf / mbtree=1 / crf=16.0 / qcomp=0.60 / qpmin=0 / qpmax=69 / qpstep=4 / ip_ratio=1.40 / aq=1:1.00 Language : Japanese Default : Yes Forced : No Audio ID : 2 Format : FLAC Format/Info : Free Lossless Audio Codec Codec ID : A_FLAC Duration : 25 min 12 s Bit rate mode : Variable Bit rate : 621 kb/s Channel(s) : 2 channels Channel positions : Front: L R Sampling rate : 48.0 kHz Frame rate : 11.719 FPS (4096 SPF) Bit depth : 16 bits Stream size : 112 MiB (10%) Writing library : libFLAC 1.3.2 (UTC 2017-01-01) Language : Japanese Default : Yes Forced : No Text ID : 3 Format : ASS Codec ID : S_TEXT/ASS Codec ID/Info : Advanced Sub Station Alpha Duration : 25 min 5 s Bit rate : 172 b/s Count of elements : 449 Compression mode : Lossless Stream size : 31.8 KiB (0%) Title : GJM Language : English Default : Yes Forced : No Menu 00:00:00.000 : en:Intro 00:04:13.920 : en:Main Episode 00:23:24.611 : en:Preview 00:23:39.626 : en:ED ```

File list

  • [SCP-2223] Sagrada Reset [Blu-ray 1080p h264 FLAC]
    • [SCP-2223] Sagrada Reset - 01 [Blu-ray 1080p h264 FLAC][F472C6DD].mkv (1.1 GiB)
    • [SCP-2223] Sagrada Reset - 02 [Blu-ray 1080p h264 FLAC][589CDFB2].mkv (1.0 GiB)
    • [SCP-2223] Sagrada Reset - 03 [Blu-ray 1080p h264 FLAC][1DF203F8].mkv (1.2 GiB)
    • [SCP-2223] Sagrada Reset - 04 [Blu-ray 1080p h264 FLAC][955DB15B].mkv (1.3 GiB)
    • [SCP-2223] Sagrada Reset - 05 [Blu-ray 1080p h264 FLAC][5481E3D9].mkv (1.1 GiB)
    • [SCP-2223] Sagrada Reset - 06 [Blu-ray 1080p h264 FLAC][30095BBF].mkv (1.1 GiB)
    • [SCP-2223] Sagrada Reset - 07 [Blu-ray 1080p h264 FLAC][EE70EEAB].mkv (1.1 GiB)
    • [SCP-2223] Sagrada Reset - 08 [Blu-ray 1080p h264 FLAC][00119BAF].mkv (1.2 GiB)
    • [SCP-2223] Sagrada Reset - 09 [Blu-ray 1080p h264 FLAC][5427E55E].mkv (1.3 GiB)
    • [SCP-2223] Sagrada Reset - 10 [Blu-ray 1080p h264 FLAC][1D1707AD].mkv (1.3 GiB)
    • [SCP-2223] Sagrada Reset - 11 [Blu-ray 1080p h264 FLAC][8E27906C].mkv (1.3 GiB)
    • [SCP-2223] Sagrada Reset - 12 [Blu-ray 1080p h264 FLAC][AE05142A].mkv (1.3 GiB)
    • [SCP-2223] Sagrada Reset - 13 [Blu-ray 1080p h264 FLAC][8EA3AF6B].mkv (1.2 GiB)
    • [SCP-2223] Sagrada Reset - 14 [Blu-ray 1080p h264 FLAC][2CDB05EC].mkv (1.3 GiB)
    • [SCP-2223] Sagrada Reset - 15 [Blu-ray 1080p h264 FLAC][8E7D73DB].mkv (1.3 GiB)
    • [SCP-2223] Sagrada Reset - 16 [Blu-ray 1080p h264 FLAC][4777B917].mkv (1.2 GiB)
    • [SCP-2223] Sagrada Reset - 17 [Blu-ray 1080p h264 FLAC][FF2DE870].mkv (1.2 GiB)
    • [SCP-2223] Sagrada Reset - 18 [Blu-ray 1080p h264 FLAC][6752DA54].mkv (1.3 GiB)
    • [SCP-2223] Sagrada Reset - 19 [Blu-ray 1080p h264 FLAC][2BD1F18A].mkv (1.2 GiB)
    • [SCP-2223] Sagrada Reset - 20 [Blu-ray 1080p h264 FLAC][53DAD520].mkv (1.2 GiB)
    • [SCP-2223] Sagrada Reset - 21 [Blu-ray 1080p h264 FLAC][D6F2B3CE].mkv (1.2 GiB)
    • [SCP-2223] Sagrada Reset - 22 [Blu-ray 1080p h264 FLAC][0E0F29B1].mkv (1.3 GiB)
    • [SCP-2223] Sagrada Reset - 23 [Blu-ray 1080p h264 FLAC][C449A61C].mkv (1.4 GiB)
    • [SCP-2223] Sagrada Reset - 24 [Blu-ray 1080p h264 FLAC][50B68C20].mkv (946.4 MiB)
@DataHorder dude anyway I could like dm you?

DataHoarder (uploader)

User
@AkihitoSenpai why is there a need for DM?
>CR (19-24) this anime was never on CR though
@DataHoarder I just wanted to know if I could use your encode as the source for an HEVC encode.
>re-encoding Moozzi2 using x265 Please have mercy. Also why would you even ask for permission?
assuming GJM finishes the show (they're now done through episode 21) would you make a patch to swap their subs in? Or if not, how much offset was needed to sync them to the bd?

DataHoarder (uploader)

User
@Slysoft: if I remember to check back, yes
Can you provide subs only? Me already have 720p version, this release size not affordable for me.
The HS (19-24) subs have many mistakes in them. Not minor ones either.