[SCP-2223] Kekkai Sensen & Beyond [Blu-ray 1080p h264 FLAC]

Category:
Date:
2018-06-30 13:04 UTC
Submitter:
Seeders:
4
Information:
Leechers:
1
File size:
21.1 GiB
Completed:
852
Info hash:
018130486ca63e8b612b6b2b0acd8db6a5a4b817
Contains LowPower-Raws raws with sync'd CR softsubs. All episodes contain a commentary track. ``` General Unique ID : 210775371590015195309399030280291883037 (0x9E91DC26E488CBC7B2E2F7AA7E00181D) Complete name : [SCP-2223] Kekkai Sensen & Beyond - 01 [Blu-ray 1080p h264 FLAC][929074BD].mkv Format : Matroska Format version : Version 4 / Version 2 File size : 1.69 GiB Duration : 24 min 10 s Overall bit rate mode : Variable Overall bit rate : 10.0 Mb/s Movie name : [SCP-2223] Kekkai Sensen & Beyond - 01 [Blu-ray 1080p h264 FLAC] Encoded date : UTC 2018-06-30 12:06:28 Writing application : mkvmerge v19.0.0 ('Brave Captain') 64-bit Writing library : libebml v1.3.5 + libmatroska v1.4.8 Attachments : OpenSans-Semibold.ttf Video ID : 1 Format : AVC Format/Info : Advanced Video Codec Format profile : High@L5 Format settings : CABAC / 10 Ref Frames Format settings, CABAC : Yes Format settings, ReFrames : 10 frames Codec ID : V_MPEG4/ISO/AVC Duration : 24 min 2 s Bit rate : 8 613 kb/s Width : 1 920 pixels Height : 1 080 pixels Display aspect ratio : 16:9 Frame rate mode : Constant Frame rate : 23.976 (24000/1001) FPS Color space : YUV Chroma subsampling : 4:2:0 Bit depth : 8 bits Scan type : Progressive Bits/(Pixel*Frame) : 0.173 Stream size : 1.45 GiB (85%) Writing library : x264 core 152 r2851+45 9658d1a 7mod [8-bit@all X86_64] Encoding settings : cabac=1 / ref=10 / deblock=1:0:0 / analyse=0x3:0x113 / me=umh / subme=9 / psy=1 / fade_compensate=0.00 / psy_rd=0.80:0.25 / mixed_ref=1 / me_range=32 / chroma_me=1 / trellis=1 / 8x8dct=1 / cqm=0 / deadzone=21,11 / fast_pskip=0 / chroma_qp_offset=-4 / threads=12 / lookahead_threads=1 / sliced_threads=0 / nr=0 / decimate=1 / interlaced=0 / bluray_compat=0 / constrained_intra=0 / fgo=0 / bframes=8 / b_pyramid=2 / b_adapt=1 / b_bias=0 / direct=1 / weightb=1 / open_gop=0 / weightp=2 / keyint=250 / keyint_min=23 / scenecut=40 / intra_refresh=0 / rc_lookahead=70 / rc=crf / mbtree=1 / crf=17.0000 / qcomp=0.60 / qpmin=0:0:0 / qpmax=69:69:69 / qpstep=4 / ip_ratio=1.40 / aq=3:0.80 / aq-sensitivity=10.00 / aq-factor=1.00:1.00:1.00 / aq2=0 / aq3=0 Default : Yes Forced : No Audio #1 ID : 2 Format : FLAC Format/Info : Free Lossless Audio Codec Codec ID : A_FLAC Duration : 24 min 2 s Bit rate mode : Variable Bit rate : 811 kb/s Channel(s) : 2 channels Channel positions : Front: L R Sampling rate : 48.0 kHz Frame rate : 11.719 FPS (4096 SPF) Bit depth : 16 bits Stream size : 139 MiB (8%) Writing library : libFLAC 1.2.1 (UTC 2007-09-17) Language : Japanese Default : Yes Forced : No Audio #2 ID : 3 Format : FLAC Format/Info : Free Lossless Audio Codec Codec ID : A_FLAC Duration : 24 min 2 s Bit rate mode : Variable Bit rate : 658 kb/s Channel(s) : 2 channels Channel positions : Front: L R Sampling rate : 48.0 kHz Frame rate : 11.719 FPS (4096 SPF) Bit depth : 16 bits Stream size : 113 MiB (7%) Writing library : libFLAC 1.2.1 (UTC 2007-09-17) Language : Japanese Default : No Forced : No Text ID : 4 Format : ASS Codec ID : S_TEXT/ASS Codec ID/Info : Advanced Sub Station Alpha Duration : 23 min 58 s Bit rate : 137 b/s Count of elements : 370 Compression mode : Lossless Stream size : 24.2 KiB (0%) Title : CR Language : English Default : Yes Forced : No ```

File list

  • [SCP-2223] Kekkai Sensen & Beyond [Blu-ray 1080p h264 FLAC]
    • [SCP-2223] Kekkai Sensen & Beyond - 01 [Blu-ray 1080p h264 FLAC][929074BD].mkv (1.7 GiB)
    • [SCP-2223] Kekkai Sensen & Beyond - 02 [Blu-ray 1080p h264 FLAC][3976EE1C].mkv (1.7 GiB)
    • [SCP-2223] Kekkai Sensen & Beyond - 03 [Blu-ray 1080p h264 FLAC][A4A8432A].mkv (1.6 GiB)
    • [SCP-2223] Kekkai Sensen & Beyond - 04 [Blu-ray 1080p h264 FLAC][C1C7EA7B].mkv (1.8 GiB)
    • [SCP-2223] Kekkai Sensen & Beyond - 05 [Blu-ray 1080p h264 FLAC][E1B34A20].mkv (1.8 GiB)
    • [SCP-2223] Kekkai Sensen & Beyond - 06 [Blu-ray 1080p h264 FLAC][AA7721BD].mkv (1.9 GiB)
    • [SCP-2223] Kekkai Sensen & Beyond - 07 [Blu-ray 1080p h264 FLAC][0EDB8898].mkv (1.8 GiB)
    • [SCP-2223] Kekkai Sensen & Beyond - 08 [Blu-ray 1080p h264 FLAC][E410ED50].mkv (1.8 GiB)
    • [SCP-2223] Kekkai Sensen & Beyond - 09 [Blu-ray 1080p h264 FLAC][B702177A].mkv (1.8 GiB)
    • [SCP-2223] Kekkai Sensen & Beyond - 10 [Blu-ray 1080p h264 FLAC][B382022E].mkv (1.6 GiB)
    • [SCP-2223] Kekkai Sensen & Beyond - 11 [Blu-ray 1080p h264 FLAC][3700460F].mkv (1.7 GiB)
    • [SCP-2223] Kekkai Sensen & Beyond - 12 [Blu-ray 1080p h264 FLAC][8D50C70E].mkv (2.0 GiB)