[Various] Kumo no You ni, Kaze no You ni [TV-KIDS 992x720 h264 AAC][E1D13C9B].mkv

Category:
Date:
2018-06-30 10:53 UTC
Submitter:
Seeders:
0
Information:
No information.
Leechers:
0
File size:
1.4 GiB
Completed:
138
Info hash:
7da153df805818c538e5c8b497e661528baf9bc6
Contains a remux of the video/audio from [this TV source from KIDS/heponeko](https://nyaa.si/view/982058) and sync'd subtitles from A-FanRips. Has a small transparent KIDS watermark on the top left corner. ![](https://i.imgur.com/1TwMe0r.png) ![](https://i.imgur.com/YilDPXQ.png) ![](https://i.imgur.com/JfBNJYd.png) ![](https://i.imgur.com/6akqaa9.png) ``` General Unique ID : 224946958217415841621251494657865773948 (0xA93B355160AE5BB3335F624CA133737C) Complete name : [Various] Kumo no You ni, Kaze no You ni [TV-KIDS 992x720 h264 AAC][E1D13C9B].mkv Format : Matroska Format version : Version 4 / Version 2 File size : 1.36 GiB Duration : 1 h 18 min Overall bit rate : 2 462 kb/s Movie name : [Various] Kumo no You ni, Kaze no You ni [TV-KIDS KIDS 992x720 h264 AAC] Encoded date : UTC 2018-03-04 18:33:15 Writing application : mkvmerge v21.0.0 ('Tardigrades Will Inherit The Earth') 64-bit Writing library : libebml v1.3.5 + libmatroska v1.4.8 Attachments : QuaySansMdITCTT.ttf Video ID : 1 Format : AVC Format/Info : Advanced Video Codec Format profile : High@L4.1 Format settings, CABAC : Yes Format settings, RefFrames : 8 frames Codec ID : V_MPEG4/ISO/AVC Duration : 1 h 18 min Bit rate : 2 320 kb/s Width : 992 pixels Height : 720 pixels Display aspect ratio : 1.378 Frame rate mode : Constant Frame rate : 23.976 (24000/1001) FPS Color space : YUV Chroma subsampling : 4:2:0 Bit depth : 8 bits Scan type : Progressive Bits/(Pixel*Frame) : 0.135 Stream size : 1.28 GiB (94%) Title : TV-KIDS heponeko Writing library : x264 core 129 r2245+729M 1a52e03 Encoding settings : cabac=1 / ref=8 / deblock=1:0:0 / analyse=0x3:0x133 / me=umh / subme=9 / psy=1 / fade_compensate=0.00 / psy_rd=1.00:0.00 / mixed_ref=1 / me_range=16 / chroma_me=1 / trellis=2 / 8x8dct=1 / cqm=0 / deadzone=21,11 / fast_pskip=1 / chroma_qp_offset=-2 / threads=6 / lookahead_threads=1 / sliced_threads=0 / nr=0 / decimate=1 / interlaced=0 / bluray_compat=0 / constrained_intra=0 / fgo=0 / bframes=3 / b_pyramid=2 / b_adapt=2 / b_bias=0 / direct=3 / weightb=1 / open_gop=0 / weightp=2 / keyint=250 / keyint_min=23 / scenecut=40 / intra_refresh=0 / rc_lookahead=60 / rc=crf / mbtree=1 / crf=19.0 / qcomp=0.60 / qpmin=0 / qpmax=69 / qpstep=4 / ip_ratio=1.40 / aq=1:1.00 Language : Japanese Default : Yes Forced : No Color range : Limited Color primaries : BT.709 Transfer characteristics : BT.709 Matrix coefficients : BT.709 Audio ID : 2 Format : AAC Format/Info : Advanced Audio Codec Format profile : LC Codec ID : A_AAC Duration : 1 h 18 min Bit rate : 140 kb/s Channel(s) : 2 channels Channel positions : Front: L R Sampling rate : 48.0 kHz Frame rate : 46.875 FPS (1024 SPF) Compression mode : Lossy Stream size : 79.0 MiB (6%) Language : Japanese Default : Yes Forced : No Text ID : 3 Format : ASS Codec ID : S_TEXT/ASS Codec ID/Info : Advanced Sub Station Alpha Duration : 1 h 17 min Bit rate : 126 b/s Count of elements : 1061 Compression mode : Lossless Stream size : 72.0 KiB (0%) Title : English A-FanRips Language : English Default : Yes Forced : No ```

File list

  • [Various] Kumo no You ni, Kaze no You ni [TV-KIDS 992x720 h264 AAC][E1D13C9B].mkv (1.4 GiB)
Thanks for the release. But oh man that watermark is annoying, I got used to the Jetix logos and such when I was a kid but with anime it just seems wrong. I have never heard of this anime before but if someone ever went to the trouble of encoding in just the upper right corner of the DVD release on top of this one I would watch it.

DataHoarder (uploader)

User
XavierSylfaen: sadly I haven't been able to find the original non-encoded RAWs for this. Otherwise it would have been done :) The watermark is transparent so you wouldn't really need the DVD release either.
There is a VOSTFR release that has seeds on here, I totally get why you wouldn't want to encode video twice over though. Unrelated but I just discovered your uploads, they're amazing. I am downloading every [FeelsBadMan] release, thank you for doing them. Do you know of any release of the Bob Ross marathon that included Twitch chat in some similar sort of way? Obviously it wouldn't be allowed on here but it's of great interest to me. I was thinking of doing one myself but I didn't know where to start other than just hard recording the chat scrolling by.

DataHoarder (uploader)

User
XavierSylfaen: There are several dumps of the VODs chat on the internet. You can sync those to the original episodes, but it's hard without a recording of the original show (so you can sync chat with runtime) For the scrolling subs, it's a hacked together script. Might do more in the future, but some sources got taken down and didn't have more time to do a full manual work back then.
The bluray was uploaded yesterday, so you could just wait for that if you wanna avoid the watermark.
@Tjorna: You mean on ADC or U2 or something? I don't see it here. In any case I'll probably keep an eye out for it then, thanks.

DataHoarder (uploader)

User
@Tjorna thanks for the heads-up! Seems to be [this one on Amazon](https://www.amazon.com/Like-the-Clouds-Like-the-Wind-Blu-ray/dp/B07BT4LW3C), but I haven't found any releases yet.

DataHoarder (uploader)

User
BD is on the way ^^
I haven't torrented it just yet but thanks for uploading this anyway, I found about the film months ago but lost hope on watching it when I saw that there were no torrents for it. I guess it's pretty obscure.