[SCP-2223] Kaiba [Blu-ray 1080p h264-10bit FLAC]

Category:
Date:
2018-06-30 10:21 UTC
Submitter:
Seeders:
2
Information:
Leechers:
0
File size:
14.5 GiB
Completed:
693
Info hash:
71386ce1f2f0b866803bd177b0bbd46fef5b1abb
Contains Beatrice-Raws raws with sync'd Ureshii-F-B softsubs. ``` General Unique ID : 318503125056265347671683819226513213969 (0xEF9D7878C2FF25BCB37AA744D1E30A11) Complete name : [SCP-2223] Kaiba - 01 [Blu-ray 1080p h264-10bit FLAC][0F306DDC].mkv Format : Matroska Format version : Version 4 / Version 2 File size : 1.10 GiB Duration : 24 min 5 s Overall bit rate mode : Variable Overall bit rate : 6 546 kb/s Movie name : [SCP-2223] Kaiba - 01 [Blu-ray 1080p h264-10bit FLAC] Encoded date : UTC 2018-03-24 04:44:20 Writing application : mkvmerge v15.0.0 ('Duel with the Devil') 64-bit Writing library : libebml v1.3.5 + libmatroska v1.4.5 Attachments : Bubbly Frog.ttf / Belizarius.ttf / FontOnAStick.ttf Video ID : 1 Format : AVC Format/Info : Advanced Video Codec Format profile : High 10@L5 Format settings, CABAC : Yes Format settings, RefFrames : 4 frames Codec ID : V_MPEG4/ISO/AVC Duration : 24 min 5 s Bit rate : 5 940 kb/s Width : 1 920 pixels Height : 1 080 pixels Display aspect ratio : 16:9 Frame rate mode : Constant Frame rate : 23.976 (24000/1001) FPS Color space : YUV Chroma subsampling : 4:2:0 Bit depth : 10 bits Scan type : Progressive Bits/(Pixel*Frame) : 0.119 Stream size : 1 024 MiB (91%) Title : BDRip by Urotsuki Writing library : x264 core 152 r2851kMod ba24899 Encoding settings : cabac=1 / ref=4 / deblock=1:1:-1 / analyse=0x3:0x113 / me=umh / subme=9 / psy=1 / fade_compensate=0.00 / psy_rd=1.00:0.00 / mixed_ref=1 / me_range=32 / chroma_me=1 / trellis=2 / 8x8dct=1 / cqm=0 / deadzone=21,11 / fast_pskip=1 / chroma_qp_offset=-2 / threads=6 / lookahead_threads=1 / sliced_threads=0 / nr=0 / decimate=1 / interlaced=0 / bluray_compat=0 / constrained_intra=0 / bframes=9 / b_pyramid=2 / b_adapt=2 / b_bias=0 / direct=1 / weightb=1 / open_gop=0 / weightp=2 / keyint=250 / keyint_min=23 / scenecut=40 / intra_refresh=0 / rc=crf / mbtree=0 / crf=15.0000 / qcomp=0.72 / qpmin=0 / qpmax=81 / qpstep=4 / ip_ratio=1.40 / pb_ratio=1.30 / aq=1:0.85 Language : Japanese Default : Yes Forced : No Color range : Limited Color primaries : BT.709 Transfer characteristics : BT.709 Matrix coefficients : BT.709 Audio ID : 2 Format : FLAC Format/Info : Free Lossless Audio Codec Codec ID : A_FLAC Duration : 24 min 5 s Bit rate mode : Variable Bit rate : 603 kb/s Channel(s) : 2 channels Channel positions : Front: L R Sampling rate : 48.0 kHz Frame rate : 11.719 FPS (4096 SPF) Bit depth : 16 bits Stream size : 104 MiB (9%) Title : LPCM->FLAC Writing library : libFLAC 1.3.2 (UTC 2017-01-01) Language : Japanese Default : Yes Forced : No Text ID : 3 Format : ASS Codec ID : S_TEXT/ASS Codec ID/Info : Advanced Sub Station Alpha Duration : 21 min 27 s Bit rate : 100 b/s Count of elements : 247 Compression mode : Lossless Stream size : 15.8 KiB (0%) Title : F-B/Ureshii Language : English Default : Yes Forced : No Menu 00:00:00.000 : en:Opening ?Never? 00:01:30.112 : en:Episode 00:22:25.560 : en:Ending ?Carry Me Away? 00:23:54.900 : en:Next Episode Title ```

File list

  • [SCP-2223] Kaiba [Blu-ray 1080p h264-10bit FLAC]
    • [SCP-2223] Kaiba - 01 [Blu-ray 1080p h264-10bit FLAC][0F306DDC].mkv (1.1 GiB)
    • [SCP-2223] Kaiba - 02 [Blu-ray 1080p h264-10bit FLAC][981B7C29].mkv (1.2 GiB)
    • [SCP-2223] Kaiba - 03 [Blu-ray 1080p h264-10bit FLAC][0A264B63].mkv (1.2 GiB)
    • [SCP-2223] Kaiba - 04 [Blu-ray 1080p h264-10bit FLAC][4821688C].mkv (1.0 GiB)
    • [SCP-2223] Kaiba - 05 [Blu-ray 1080p h264-10bit FLAC][04B64170].mkv (1.6 GiB)
    • [SCP-2223] Kaiba - 06 [Blu-ray 1080p h264-10bit FLAC][7A2B91E0].mkv (1.3 GiB)
    • [SCP-2223] Kaiba - 07 [Blu-ray 1080p h264-10bit FLAC][145E3921].mkv (1.5 GiB)
    • [SCP-2223] Kaiba - 08 [Blu-ray 1080p h264-10bit FLAC][C86980F8].mkv (1.2 GiB)
    • [SCP-2223] Kaiba - 09 [Blu-ray 1080p h264-10bit FLAC][E65F08BE].mkv (1.2 GiB)
    • [SCP-2223] Kaiba - 10 [Blu-ray 1080p h264-10bit FLAC][8135E8CD].mkv (1.1 GiB)
    • [SCP-2223] Kaiba - 11 [Blu-ray 1080p h264-10bit FLAC][8D5ADFFF].mkv (1.2 GiB)
    • [SCP-2223] Kaiba - 12 [Blu-ray 1080p h264-10bit FLAC][77BA891E].mkv (877.0 MiB)
Thanks, this is from <https://frozenpandaman.github.io/kaiba/> right?
Nope, these appear to be the original Ureshii-F-B subs
I re-timed eli's (frozenpandaman) modified F-B Ureshii subtitles for the BD. The first line was missing in Ep12, so re-added it. Removed credits referring to encoding since the BD's are encoded by Beatrice-Raws in this case. Here's the link: https://www.mediafire.com/file/qrrx03sihhirqnz/