[SCP-2223] Sora yori mo Tooi Basho [Blu-ray 1080p h264 FLAC]

Category:
Date:
2018-06-30 10:17 UTC
Submitter:
Seeders:
2
Information:
Leechers:
0
File size:
21.3 GiB
Completed:
296
Info hash:
d2edace97ca5e2b77dcb5edd4f6dbddf6a8343af
Contains ReinForce raws with sync'd Coldgirls localized softsubs. ``` General Unique ID : 148724133486135429593743216220129989735 (0x6FE339E91F0FC28927FE671F4FEC1467) Complete name : [SCP-2223] Sora yori mo Tooi Basho - 01 [Blu-ray 1080p h264 FLAC][4299D131].mkv Format : Matroska Format version : Version 4 / Version 2 File size : 1.56 GiB Duration : 23 min 46 s Overall bit rate mode : Variable Overall bit rate : 9 412 kb/s Movie name : [SCP-2223] Sora yori mo Tooi Basho - 01 [Blu-ray 1080p h264 FLAC] Encoded date : UTC 2018-06-30 09:08:45 Writing application : mkvmerge v19.0.0 ('Brave Captain') 64-bit Writing library : libebml v1.3.5 + libmatroska v1.4.8 Attachments : Aller_Rg.ttf / blzee.ttf / Bolide-Regular.ttf / Chinela Brush.ttf / civanenormregular.otf / CONFN__.TTF / Denne Marker.ttf / DK Borrowdale.otf / EraserRegular.ttf / expressway_rg.otf / GloriaHallelujah.ttf / graviolasoft-medium.otf / graviolasoft-mediumitalic.otf / Handgley Bold.otf / Handgley Regular.otf / IndieFlower.ttf / loremipsum.ttf / McHandwriting.otf / Montara-Gothic.otf / Nikaia.otf / Roboto-Bold.ttf / Roboto-Light.ttf / Roboto-Regular.ttf / Rolina Bold.ttf / ryp_sflake6.ttf / Signika-Regular.otf / Station.ttf / Typo_Round_Regular_Demo.otf / Vollkorn-Regular.ttf / WCManoNegraBta.otf / YARDSALE.TTF / Aller.ttf Video ID : 1 Format : AVC Format/Info : Advanced Video Codec Format profile : High@L4 Format settings : CABAC / 4 Ref Frames Format settings, CABAC : Yes Format settings, ReFrames : 4 frames Codec ID : V_MPEG4/ISO/AVC Duration : 23 min 46 s Bit rate : 7 981 kb/s Width : 1 920 pixels Height : 1 080 pixels Display aspect ratio : 16:9 Frame rate mode : Constant Frame rate : 23.976 (24000/1001) FPS Color space : YUV Chroma subsampling : 4:2:0 Bit depth : 8 bits Scan type : Progressive Bits/(Pixel*Frame) : 0.161 Stream size : 1.33 GiB (85%) Writing library : x264 core 152 Encoding settings : opencl=1 / cabac=1 / ref=4 / deblock=1:-2:-2 / analyse=0x3:0x113 / me=umh / subme=9 / psy=1 / psy_rd=0.70:0.00 / mixed_ref=0 / me_range=32 / chroma_me=1 / trellis=2 / 8x8dct=1 / cqm=0 / deadzone=21,11 / fast_pskip=1 / chroma_qp_offset=-2 / threads=8 / lookahead_threads=1 / sliced_threads=0 / nr=0 / decimate=1 / interlaced=0 / bluray_compat=0 / constrained_intra=0 / bframes=9 / b_pyramid=2 / b_adapt=2 / b_bias=0 / direct=3 / weightb=1 / open_gop=0 / weightp=2 / keyint=250 / keyint_min=23 / scenecut=40 / intra_refresh=0 / rc_lookahead=40 / rc=crf / mbtree=1 / crf=16.0 / qcomp=0.70 / qpmin=10 / qpmax=20 / qpstep=4 / ip_ratio=1.40 / aq=1:1.00 Default : Yes Forced : No Audio ID : 2 Format : FLAC Format/Info : Free Lossless Audio Codec Codec ID : A_FLAC Duration : 23 min 46 s Bit rate mode : Variable Bit rate : 1 387 kb/s Channel(s) : 2 channels Channel positions : Front: L R Sampling rate : 48.0 kHz Frame rate : 10.417 FPS (4608 SPF) Bit depth : 24 bits Stream size : 236 MiB (15%) Writing library : Lavf57.83.100 Language : Japanese Default : Yes Forced : No Text ID : 3 Format : ASS Codec ID : S_TEXT/ASS Codec ID/Info : Advanced Sub Station Alpha Duration : 23 min 30 s Bit rate : 20.6 kb/s Count of elements : 16213 Compression mode : Lossless Stream size : 3.46 MiB (0%) Title : Coldgirls Language : English Default : Yes Forced : No Menu 00:00:00.000 : en:Intro 00:02:14.030 : en:OP 00:03:44.030 : en:Part A 00:11:57.980 : en:Part B 00:19:33.820 : en:ED 00:22:36.540 : en:Outro ```

File list

  • [SCP-2223] Sora yori mo Tooi Basho [Blu-ray 1080p h264 FLAC]
    • [SCP-2223] Sora yori mo Tooi Basho - 01 [Blu-ray 1080p h264 FLAC][4299D131].mkv (1.6 GiB)
    • [SCP-2223] Sora yori mo Tooi Basho - 02 [Blu-ray 1080p h264 FLAC][780CC60A].mkv (1.7 GiB)
    • [SCP-2223] Sora yori mo Tooi Basho - 03 [Blu-ray 1080p h264 FLAC][2C69F8D9].mkv (1.7 GiB)
    • [SCP-2223] Sora yori mo Tooi Basho - 04 [Blu-ray 1080p h264 FLAC][893C6FCD].mkv (1.6 GiB)
    • [SCP-2223] Sora yori mo Tooi Basho - 05 [Blu-ray 1080p h264 FLAC][CC3E5396].mkv (1.5 GiB)
    • [SCP-2223] Sora yori mo Tooi Basho - 06 [Blu-ray 1080p h264 FLAC][B17A48D0].mkv (1.6 GiB)
    • [SCP-2223] Sora yori mo Tooi Basho - 07 [Blu-ray 1080p h264 FLAC][96084D23].mkv (1.7 GiB)
    • [SCP-2223] Sora yori mo Tooi Basho - 08 [Blu-ray 1080p h264 FLAC][77788544].mkv (1.8 GiB)
    • [SCP-2223] Sora yori mo Tooi Basho - 09 [Blu-ray 1080p h264 FLAC][0051AB65].mkv (1.7 GiB)
    • [SCP-2223] Sora yori mo Tooi Basho - 10 [Blu-ray 1080p h264 FLAC][38534891].mkv (1.7 GiB)
    • [SCP-2223] Sora yori mo Tooi Basho - 11 [Blu-ray 1080p h264 FLAC][1A50D461].mkv (1.7 GiB)
    • [SCP-2223] Sora yori mo Tooi Basho - 12 [Blu-ray 1080p h264 FLAC][C4B00B32].mkv (1.6 GiB)
    • [SCP-2223] Sora yori mo Tooi Basho - 13 [Blu-ray 1080p h264 FLAC][DBF8F339].mkv (1.6 GiB)