[Neutrinome] One Punch Man - VOSTFR [1080p BDRip FLAC] + DDL

Category:
Date:
2018-06-26 13:06 UTC
Submitter:
Seeders:
1
Information:
Leechers:
0
File size:
21.7 GiB
Completed:
76
Info hash:
237df8141cea64685e869de99c3a30e1484fc5f4
One Punch Man ====== *** ![alt text](https://marvelll.fr/wp-content/uploads/2018/04/one-punch-man-saison-1-poster.jpg) *** * **Date de sortie** : 2015 * **Durée** : 12*24min * **Licencié** : Kazé/ADN/Netflix * **Vidéo** : Beatrice-Raws * **Sous-titre** : ADN * **Lien DDL** : [Uptobox](https://uptobox.com/p3vc3d1db0ul) *** **NFO** General Unique ID : 145831024931179263632100698730166410530 (0x6DB608A56260B6BC8FA7E5E66926DD22) Format : Matroska Format version : Version 4 / Version 2 File size : 1.87 GiB Duration : 24 min 21 s Overall bit rate mode : Variable Overall bit rate : 11.0 Mb/s Encoded date : UTC 2018-06-21 11:07:19 Writing application : mkvmerge v24.0.0 ('Beyond The Pale') 64-bit Writing library : libebml v1.3.6 + libmatroska v1.4.9 Video ID : 1 Format : AVC Format/Info : Advanced Video Codec Format profile : High 10@L5 Format settings, CABAC : Yes Format settings, RefFrames : 4 frames Codec ID : V_MPEG4/ISO/AVC Duration : 24 min 21 s Bit rate : 9 451 kb/s Width : 1 920 pixels Height : 1 080 pixels Display aspect ratio : 16:9 Frame rate mode : Constant Frame rate : 23.976 (24000/1001) FPS Color space : YUV Chroma subsampling : 4:2:0 Bit depth : 10 bits Scan type : Progressive Bits/(Pixel*Frame) : 0.190 Stream size : 1.61 GiB (86%) Title : BDRip by Vladdrako & CaypoH [Beatrice-Raws] Writing library : x264 core 148 (DJATOM's build) Encoding settings : cabac=1 / ref=4 / deblock=1:1:-1 / analyse=0x3:0x113 / me=umh / subme=9 / psy=1 / fade_compensate=0.00 / psy_rd=1.00:0.00 / mixed_ref=1 / me_range=32 / chroma_me=1 / trellis=2 / 8x8dct=1 / cqm=0 / deadzone=21,11 / fast_pskip=1 / chroma_qp_offset=-2 / threads=12 / lookahead_threads=2 / sliced_threads=0 / nr=0 / decimate=1 / interlaced=0 / bluray_compat=0 / constrained_intra=0 / bframes=9 / b_pyramid=2 / b_adapt=2 / b_bias=0 / direct=1 / weightb=1 / open_gop=0 / weightp=2 / keyint=250 / keyint_min=23 / scenecut=40 / intra_refresh=0 / rc=crf / mbtree=0 / crf=15.0000 / qcomp=0.72 / qpmin=0 / qpmax=81 / qpstep=4 / ip_ratio=1.40 / pb_ratio=1.30 / aq=1:0.85 Language : Japanese Default : Yes Forced : No Color range : Limited Color primaries : BT.709 Transfer characteristics : BT.709 Matrix coefficients : BT.709 Audio ID : 2 Format : FLAC Format/Info : Free Lossless Audio Codec Codec ID : A_FLAC Duration : 24 min 21 s Bit rate mode : Variable Bit rate : 1 472 kb/s Channel(s) : 2 channels Channel positions : Front: L R Sampling rate : 48.0 kHz Frame rate : 11.719 FPS (4096 SPF) Bit depth : 24 bits Stream size : 256 MiB (13%) Title : LPCM->FLAC Writing library : libFLAC 1.3.1 (UTC 2014-11-25) Language : Japanese Default : Yes Forced : No Text #1 ID : 3 Format : ASS Codec ID : S_TEXT/ASS Codec ID/Info : Advanced Sub Station Alpha Duration : 23 min 26 s Bit rate : 80 b/s Count of elements : 259 Compression mode : Lossless Stream size : 13.8 KiB (0%) Title : Français Language : French Default : Yes Forced : No Text #2 ID : 4 Format : PGS Muxing mode : zlib Codec ID : S_HDMV/PGS Codec ID/Info : Picture based subtitle format used on BDs/HD-DVDs Duration : 23 min 59 s Bit rate : 204 kb/s Count of elements : 1812 Stream size : 34.9 MiB (2%) Title : Japanese Subtitles Language : Japanese Default : No Forced : No Menu 00:00:00.000 : :Avant 00:03:10.982 : :OP 00:04:41.030 : :Part A 00:14:45.050 : :Part B 00:22:10.120 : :ED 00:23:40.085 : :Part C 00:24:00.105 : :Next

File list

  • [Neutrinome] One Punch Man - VOSTFR [1080p BDRip FLAC]
    • EXTRA
      • [Beatrice-Raws] One Punch Man (Creditless ED) [BDRip 1920x1080 x264 FLAC].mkv (85.2 MiB)
      • [Beatrice-Raws] One Punch Man (Creditless OP) [BDRip 1920x1080 x264 FLAC].mkv (150.2 MiB)
    • [Neutrinome] One Punch Man - 01 - VOSTFR [1080p BDRip FLAC].mkv (1.9 GiB)
    • [Neutrinome] One Punch Man - 02 - VOSTFR [1080p BDRip FLAC].mkv (2.0 GiB)
    • [Neutrinome] One Punch Man - 03 - VOSTFR [1080p BDRip FLAC].mkv (1.7 GiB)
    • [Neutrinome] One Punch Man - 04 - VOSTFR [1080p BDRip FLAC].mkv (1.7 GiB)
    • [Neutrinome] One Punch Man - 05 - VOSTFR [1080p BDRip FLAC].mkv (1.6 GiB)
    • [Neutrinome] One Punch Man - 06 - VOSTFR [1080p BDRip FLAC].mkv (1.6 GiB)
    • [Neutrinome] One Punch Man - 07 - VOSTFR [1080p BDRip FLAC].mkv (1.8 GiB)
    • [Neutrinome] One Punch Man - 08 - VOSTFR [1080p BDRip FLAC].mkv (1.9 GiB)
    • [Neutrinome] One Punch Man - 09 - VOSTFR [1080p BDRip FLAC].mkv (1.9 GiB)
    • [Neutrinome] One Punch Man - 10 - VOSTFR [1080p BDRip FLAC].mkv (1.6 GiB)
    • [Neutrinome] One Punch Man - 11 - VOSTFR [1080p BDRip FLAC].mkv (1.8 GiB)
    • [Neutrinome] One Punch Man - 12 - VOSTFR [1080p BDRip FLAC].mkv (2.0 GiB)
Je prends pas quand ça fait moins de 30Go ..... :')
Non mais ferme ta gueule
besoin de seed svp