[Neutrinome] Arakawa Under the Bridge (S1) - VOSTFR [1080p BDRip FLAC] + DDL

Category:
Date:
2018-06-21 20:12 UTC
Submitter:
Seeders:
2
Information:
Leechers:
0
File size:
12.7 GiB
Completed:
105
Info hash:
c78e9b6b5066f78901b24298c0a18f06342eb8b8
Arakawa Under the Bridge ====== *** ![alt text](https://image.tmdb.org/t/p/original/hKfGh8t6YUX06doBHBib6RPKeNd.jpg) *** * **Date de sortie** : 2010 * **Durée** : 13*24min * **Licencié** : Non * **Vidéo** : ANE * **Sous-titre** : Hyogo * **Lien DDL** : [Uptobox](https://uptobox.com/ebjif8l0cpis) *** **NB** : Si vous avez les sous-titres de la saison 2 en softsub, contacter moi. *** **NFO** General Unique ID : 145587790231021648211470850487088762444 (0x6D87303FDA322F7B3860CE4782AACE4C) Format : Matroska Format version : Version 4 / Version 2 File size : 1.18 GiB Duration : 26 min 54 s Overall bit rate mode : Variable Overall bit rate : 6 265 kb/s Encoded date : UTC 2018-05-20 15:29:56 Writing application : mkvmerge v22.0.0 ('At The End Of The World') 64-bit Writing library : libebml v1.3.5 + libmatroska v1.4.8 Attachments : LeviReBrushed.ttf / LEVIREBRUSHED-BOLD.TTF / MUKOKUSEKIKITCHEN.TTF / Museo700-Regular.otf / MyriadPro-Semibold-fixed-sep.otf / MyriadPro-SemiboldIt-fixed-sep.otf / phitradesignHandwritten-Regular.ttf / smudgerlet.TTF / sqr721kn.ttf / TT-JTC-NamikiKaishou-Stripped-P.ttf / ACaslonPro-Semibold.otf / A-OTF-GothicMB101Pr5Stripped-Bold.ttf / BeoSans-BoldR12.otf / Complete in Him.ttf / DELIUS-BOLD.TTF / Delius-Regular.ttf / FS Albert Pro-ExtraBold.otf Video ID : 1 Format : AVC Format/Info : Advanced Video Codec Format profile : High 10@L5 Format settings, CABAC : Yes Format settings, RefFrames : 8 frames Codec ID : V_MPEG4/ISO/AVC Duration : 26 min 49 s Bit rate : 5 472 kb/s Width : 1 920 pixels Height : 1 080 pixels Display aspect ratio : 16:9 Frame rate mode : Constant Frame rate : 23.976 (24000/1001) FPS Color space : YUV Chroma subsampling : 4:2:0 Bit depth : 10 bits Scan type : Progressive Bits/(Pixel*Frame) : 0.110 Stream size : 1.03 GiB (87%) Title : [ANE] Writing library : x264 core 142 r2409+42 04be48a tMod [10-bit@4:2:0 X86_64] Encoding settings : cabac=1 / ref=8 / deblock=1:-1:-1 / analyse=0x3:0x133 / me=umh / subme=10 / psy=1 / fade_compensate=0.00 / psy_rd=0.50:0.00 / mixed_ref=1 / me_range=32 / chroma_me=1 / trellis=2 / 8x8dct=1 / cqm=0 / deadzone=21,11 / fast_pskip=0 / chroma_qp_offset=-2 / threads=12 / lookahead_threads=2 / sliced_threads=0 / nr=0 / decimate=0 / interlaced=0 / bluray_compat=0 / constrained_intra=0 / fgo=0 / bframes=10 / b_pyramid=2 / b_adapt=2 / b_bias=0 / direct=1 / weightb=1 / open_gop=0 / weightp=2 / keyint=250 / keyint_min=23 / scenecut=40 / intra_refresh=0 / rc_lookahead=40 / rc=crf / mbtree=1 / crf=14.7000 / qcomp=0.75 / qpmin=0:0:0 / qpmax=50:50:50 / qpstep=4 / ip_ratio=1.40 / aq=3:0.80 / aq-sensitivity=10.00 / aq-factor=1.00:1.00:1.00 / aq2=0 / aq3=0 Language : English Default : Yes Forced : No Color range : Limited Matrix coefficients : BT.709 Audio ID : 2 Format : FLAC Format/Info : Free Lossless Audio Codec Codec ID : A_FLAC Duration : 26 min 49 s Bit rate mode : Variable Bit rate : 796 kb/s Channel(s) : 2 channels Sampling rate : 48.0 kHz Frame rate : 11.719 FPS (4096 SPF) Bit depth : 16 bits Stream size : 153 MiB (13%) Writing library : libFLAC 1.2.1 (UTC 2007-09-17) Language : Japanese Default : Yes Forced : No Text ID : 3 Format : ASS Codec ID : S_TEXT/ASS Codec ID/Info : Advanced Sub Station Alpha Duration : 26 min 52 s Bit rate : 159 b/s Count of elements : 583 Compression mode : Lossless Stream size : 31.4 KiB (0%) Title : Français [Hyogo] Language : French Default : Yes Forced : No Menu 00:00:00.000 : en:Prologue 00:01:13.991 : en:Opening 00:02:44.040 : en:Chapter 1: "An Unbound Man" 00:07:03.371 : en:Chapter 2: "Under the Bridge, Under a Big Star" 00:10:39.045 : en:Chapter 3: "Positive Thinking" 00:13:41.030 : en:Chapter 4: "Green Green" 00:15:37.844 : en:Chapter 5: "Inside the Green" 00:16:46.495 : en:Chapter 6: "The Green Truth" 00:18:23.551 : en:Chapter 7: "Rec Under the Bridge" 00:20:26.006 : en:Ending 00:21:55.971 : en:Chapter 8: "A Place of Rest" 00:24:13.609 : en:Chapter 9: "GO!" 00:26:29.912 : en:Preview 00:26:44.927 : en:Endcard: Hekiru Hikawa

File list

  • [Neutrinome] Arakawa Under the Bridge - VOSTFR [1080p BDRip FLAC]
    • [Neutrinome] Arakawa Under the Bridge - 01 - VOSTFR [1080p BDRip FLAC].mkv (1.2 GiB)
    • [Neutrinome] Arakawa Under the Bridge - 02 - VOSTFR [1080p BDRip FLAC].mkv (1019.5 MiB)
    • [Neutrinome] Arakawa Under the Bridge - 03 - VOSTFR [1080p BDRip FLAC].mkv (913.8 MiB)
    • [Neutrinome] Arakawa Under the Bridge - 04 - VOSTFR [1080p BDRip FLAC].mkv (1.1 GiB)
    • [Neutrinome] Arakawa Under the Bridge - 05 - VOSTFR [1080p BDRip FLAC].mkv (983.7 MiB)
    • [Neutrinome] Arakawa Under the Bridge - 06 - VOSTFR [1080p BDRip FLAC].mkv (960.5 MiB)
    • [Neutrinome] Arakawa Under the Bridge - 07 - VOSTFR [1080p BDRip FLAC].mkv (900.3 MiB)
    • [Neutrinome] Arakawa Under the Bridge - 08 - VOSTFR [1080p BDRip FLAC].mkv (828.0 MiB)
    • [Neutrinome] Arakawa Under the Bridge - 09 - VOSTFR [1080p BDRip FLAC].mkv (1.0 GiB)
    • [Neutrinome] Arakawa Under the Bridge - 10 - VOSTFR [1080p BDRip FLAC].mkv (1.1 GiB)
    • [Neutrinome] Arakawa Under the Bridge - 11 - VOSTFR [1080p BDRip FLAC].mkv (927.2 MiB)
    • [Neutrinome] Arakawa Under the Bridge - 12 - VOSTFR [1080p BDRip FLAC].mkv (1019.6 MiB)
    • [Neutrinome] Arakawa Under the Bridge - 13 - VOSTFR [1080p BDRip FLAC].mkv (928.0 MiB)
Pourriez vous reuploader ce torrent s'il vous plait! Il n'y a plus de seed. Merci de votre compréhension !