[Neutrinome] Suki ni Naru Sono Shunkan o. (Kokuhaku Jikkou Iinkai) - VOSTFR [1080p BDRip FLAC DTS 5.1] + DDL

Category:
Date:
2018-06-18 15:51 UTC
Submitter:
Seeders:
2
Information:
Leechers:
0
File size:
7.4 GiB
Completed:
68
Info hash:
94eff2a07dd16e64d83560575d5cea248314a898
Suki ni Naru Sono Shunkan wo. ~Kokuhaku Jikkou Iinkai~ ====== *** ![alt text](https://img.seriebox.com/films/67/67372/affich_67372_1.jpg?id=367) *** * **Date de sortie** : 2016 * **Durée** : 1h03 * **Licencié** : Non * **Vidéo** : UCCUSS * **Sous-titre** : Yarashii-Fansub * **Lien DDL** : [Uptobox](https://uptobox.com/uo05s12mgfhi) *** **NFO** General Unique ID : 284516245571988446549199737720540534410 (0xD60BD5F083150D0FFEBEBE6FF144968A) Format : Matroska Format version : Version 4 / Version 2 File size : 7.44 GiB Duration : 1 h 3 min Overall bit rate mode : Variable Overall bit rate : 16.9 Mb/s Encoded date : UTC 2018-03-18 21:23:29 Writing application : mkvmerge v20.0.0 ('I Am The Sun') 32-bit Writing library : libebml v1.3.5 + libmatroska v1.4.8 Attachments : CAC-MOOSE_C.TTF / Comfortaa-Regular_2.ttf / cynhw_16.ttf / cynhw-b_3.ttf / duprrg_4.ttf / persanbi_5.ttf / persansb_5.ttf Video ID : 1 Format : AVC Format/Info : Advanced Video Codec Format profile : High@L4.1 Format settings, CABAC : Yes Format settings, RefFrames : 4 frames Codec ID : V_MPEG4/ISO/AVC Duration : 1 h 3 min Bit rate : 12.7 Mb/s Width : 1 920 pixels Height : 1 080 pixels Display aspect ratio : 16:9 Frame rate mode : Constant Frame rate : 23.976 (24000/1001) FPS Color space : YUV Chroma subsampling : 4:2:0 Bit depth : 8 bits Scan type : Progressive Bits/(Pixel*Frame) : 0.255 Stream size : 5.59 GiB (75%) Writing library : x264 core 148 r2744 b97ae06 Encoding settings : cabac=1 / ref=4 / deblock=1:-1:-1 / analyse=0x3:0x133 / me=umh / subme=9 / psy=1 / psy_rd=0.80:0.00 / mixed_ref=1 / me_range=32 / chroma_me=1 / trellis=2 / 8x8dct=1 / cqm=0 / deadzone=21,11 / fast_pskip=1 / chroma_qp_offset=-4 / threads=4 / lookahead_threads=1 / sliced_threads=0 / nr=0 / decimate=0 / interlaced=0 / bluray_compat=0 / constrained_intra=0 / bframes=5 / b_pyramid=2 / b_adapt=1 / b_bias=0 / direct=2 / weightb=1 / open_gop=0 / weightp=2 / keyint=230 / keyint_min=23 / scenecut=40 / intra_refresh=0 / rc_lookahead=50 / rc=crf / mbtree=1 / crf=15.0 / qcomp=0.70 / qpmin=10 / qpmax=42 / qpstep=4 / vbv_maxrate=50000 / vbv_bufsize=50000 / crf_max=0.0 / nal_hrd=none / filler=0 / ip_ratio=1.40 / aq=1:0.90 Default : Yes Forced : No Audio #1 ID : 2 Format : FLAC Format/Info : Free Lossless Audio Codec Codec ID : A_FLAC Duration : 1 h 3 min Bit rate mode : Variable Bit rate : 1 157 kb/s Channel(s) : 2 channels Channel positions : Front: L R Sampling rate : 48.0 kHz Frame rate : 11.719 FPS (4096 SPF) Bit depth : 24 bits Stream size : 523 MiB (7%) Title : FLAC 2.0 Writing library : libFLAC 1.3.2 (UTC 2017-01-01) Language : Japanese Default : Yes Forced : Yes Audio #2 ID : 3 Format : DTS Format/Info : Digital Theater Systems Format profile : MA / Core Mode : 16 Format settings, Endianness : Big Codec ID : A_DTS Duration : 1 h 3 min Bit rate mode : Variable / Constant Bit rate : 2 998 kb/s / 1 509 kb/s Channel(s) : 6 channels Channel positions : Front: L C R, Side: L R, LFE Sampling rate : 48.0 kHz Frame rate : 93.750 FPS (512 SPF) Bit depth : 24 bits Compression mode : Lossless / Lossy Stream size : 1.32 GiB (18%) Title : DTS-HD 5.1 Language : Japanese Default : No Forced : No Text ID : 4 Format : ASS Codec ID : S_TEXT/ASS Codec ID/Info : Advanced Sub Station Alpha Duration : 1 h 2 min Bit rate : 9 692 b/s Count of elements : 32002 Compression mode : Lossless Stream size : 4.35 MiB (0%) Title : Français [Yarashii] Language : French Default : Yes Forced : No Menu 00:00:00.000 : en:Avant 00:03:52.482 : en:Part A 00:11:28.187 : en:Part B 00:17:07.568 : en:Part C 00:24:12.451 : en:Part D 00:31:18.334 : en:Part E 00:36:18.676 : en:Part F 00:40:54.994 : en:Part G 00:44:24.119 : en:Part H 00:50:27.691 : en:Part I 00:55:43.298 : en:ED 01:00:47.644 : en:Part J

File list

  • [Neutrinome] Suki ni Naru Sono Shunkan o. ~Kokuhaku Jikkou Iinkai~ - VOSTFR [1080p BDRip FLAC].mkv (7.4 GiB)