[Neutrinome] Zutto Mae kara Suki Deshita. (Kokuhaku Jikkou Iinkai) - VOSTFR [1080p BDRip FLAC DTS 5.1] + DDL

Category:
Date:
2018-06-17 11:22 UTC
Submitter:
Seeders:
1
Information:
Leechers:
0
File size:
7.1 GiB
Completed:
107
Info hash:
bab01d2f341c78bc9ce6bd75ff08c45e023aecdc
Zutto Mae Kara Suki Deshita. ~Kokuhaku Jikkou Iinkai~ ====== *** ![alt text](https://pics.filmaffinity.com/zutto_mae_kara_suki_deshita_kokuhaku_jikkouiinkai-831264871-large.jpg) *** * **Date de sortie** : 2016 * **Durée** : 1h03 * **Licencié** : Non * **Vidéo** : UCCUSS * **Sous-titre** : Yarashii-Fansub * **Lien DDL** : [Uptobox](https://uptobox.com/s61vyf4g6swu) *** **NFO** General Unique ID : 32618930351421657080845770419943831687 (0x188A2D6ECA318338A785A4184728F887) Format : Matroska Format version : Version 4 / Version 2 File size : 7.13 GiB Duration : 1 h 3 min Overall bit rate mode : Variable Overall bit rate : 16.0 Mb/s Encoded date : UTC 2018-03-20 23:11:07 Writing application : mkvmerge v20.0.0 ('I Am The Sun') 32-bit Writing library : libebml v1.3.5 + libmatroska v1.4.8 Attachments : persanbi_5.ttf / persansb_5.ttf Video ID : 1 Format : AVC Format/Info : Advanced Video Codec Format profile : High@L4.1 Format settings, CABAC : Yes Format settings, RefFrames : 4 frames Codec ID : V_MPEG4/ISO/AVC Duration : 1 h 3 min Bit rate : 11.8 Mb/s Width : 1 920 pixels Height : 1 080 pixels Display aspect ratio : 16:9 Frame rate mode : Constant Frame rate : 23.976 (24000/1001) FPS Color space : YUV Chroma subsampling : 4:2:0 Bit depth : 8 bits Scan type : Progressive Bits/(Pixel*Frame) : 0.237 Stream size : 5.25 GiB (74%) Writing library : x264 core 148 r2705 3f5ed56 Encoding settings : cabac=1 / ref=4 / deblock=1:-1:-1 / analyse=0x3:0x133 / me=umh / subme=9 / psy=1 / psy_rd=0.80:0.00 / mixed_ref=1 / me_range=32 / chroma_me=1 / trellis=2 / 8x8dct=1 / cqm=0 / deadzone=21,11 / fast_pskip=1 / chroma_qp_offset=-4 / threads=4 / lookahead_threads=1 / sliced_threads=0 / nr=0 / decimate=0 / interlaced=0 / bluray_compat=0 / constrained_intra=0 / bframes=5 / b_pyramid=2 / b_adapt=2 / b_bias=0 / direct=2 / weightb=1 / open_gop=0 / weightp=2 / keyint=230 / keyint_min=23 / scenecut=40 / intra_refresh=0 / rc_lookahead=50 / rc=crf / mbtree=1 / crf=15.0 / qcomp=0.70 / qpmin=10 / qpmax=42 / qpstep=4 / vbv_maxrate=50000 / vbv_bufsize=50000 / crf_max=0.0 / nal_hrd=none / filler=0 / ip_ratio=1.40 / aq=1:0.90 Default : Yes Forced : No Audio #1 ID : 2 Format : FLAC Format/Info : Free Lossless Audio Codec Codec ID : A_FLAC Duration : 1 h 3 min Bit rate mode : Variable Bit rate : 1 113 kb/s Channel(s) : 2 channels Channel positions : Front: L R Sampling rate : 48.0 kHz Frame rate : 11.719 FPS (4096 SPF) Bit depth : 24 bits Stream size : 508 MiB (7%) Title : FLAC 2.0 Writing library : libFLAC 1.3.1 (UTC 2014-11-25) Language : Japanese Default : Yes Forced : Yes Audio #2 ID : 3 Format : DTS Format/Info : Digital Theater Systems Format profile : MA / Core Mode : 16 Format settings, Endianness : Big Codec ID : A_DTS Duration : 1 h 3 min Bit rate mode : Variable / Constant Bit rate : 3 072 kb/s / 1 509 kb/s Channel(s) : 6 channels Channel positions : Front: L C R, Side: L R, LFE Sampling rate : 48.0 kHz Frame rate : 93.750 FPS (512 SPF) Bit depth : 24 bits Compression mode : Lossless / Lossy Stream size : 1.38 GiB (19%) Title : DTS-HD 5.1 Language : Japanese Default : No Forced : No Text ID : 4 Format : ASS Codec ID : S_TEXT/ASS Codec ID/Info : Advanced Sub Station Alpha Duration : 1 h 3 min Bit rate : 83 b/s Count of elements : 668 Compression mode : Lossless Stream size : 38.8 KiB (0%) Title : Français [Yarashii] Language : French Default : Yes Forced : No Menu 00:00:00.000 : en:Opening 00:01:59.619 : en:Partie A 00:05:58.232 : en:Partie B 00:11:30.481 : en:Partie C 00:18:42.871 : en:Partie D 00:26:05.772 : en:Partie E 00:32:58.977 : en:Partie F 00:36:48.706 : en:Partie G 00:44:34.254 : en:Partie H 00:50:57.971 : en:Partie I 00:56:49.739 : en:Ending 01:01:58.715 : en:Partie J

File list

  • [Neutrinome] Zutto Mae kara Suki Deshita. ~Kokuhaku Jikkou Iinkai~ - VOSTFR [1080p BDRip FLAC].mkv (7.1 GiB)