[Neutrinome] Hinata no Aoshigure - VOSTFR [1080p BDRip FLAC] + DDL

Category:
Date:
2018-06-16 09:09 UTC
Submitter:
Seeders:
2
Information:
Leechers:
0
File size:
4.6 GiB
Completed:
144
Info hash:
0855cde8d5cd61f6b34d08c3efae65d907f031a6
Hinata no Aoshigure ====== *** ![alt text](https://img.seriebox.com/films/42/42256/affich_42256_1.jpg) *** * **Date de sortie** : 2013 * **Durée** : 18min * **Licencié** : Non * **Vidéo** : Beatrice-Raws * **Sous-titre** : Houkago-Fansub * **Lien DDL** : [Uptobox](https://uptobox.com/grt86ie0bltx) *** **NFO** General Unique ID : 118620779413427246159281856636225073143 (0x593D87F6D14C5307068A48DD7FA42FF7) Format : Matroska Format version : Version 4 / Version 2 File size : 2.64 GiB Duration : 17 min 59 s Overall bit rate mode : Variable Overall bit rate : 21.0 Mb/s Encoded date : UTC 2018-06-15 21:20:34 Writing application : mkvmerge v24.0.0 ('Beyond The Pale') 64-bit Writing library : libebml v1.3.6 + libmatroska v1.4.9 Attachments : ARCENA_0.TTF / BRUSHED.TTF / DeathRattle BB.ttf / KBPlanetEarth_0.ttf / PTS75F.ttf / a song for jennifer_0.ttf / BABIRG.TTF Video ID : 1 Format : AVC Format/Info : Advanced Video Codec Format profile : High 10@L5 Format settings, CABAC : Yes Format settings, RefFrames : 4 frames Codec ID : V_MPEG4/ISO/AVC Duration : 17 min 59 s Bit rate : 19.6 Mb/s Width : 1 920 pixels Height : 1 080 pixels Display aspect ratio : 16:9 Frame rate mode : Constant Frame rate : 23.976 (24000/1001) FPS Color space : YUV Chroma subsampling : 4:2:0 Bit depth : 10 bits Scan type : Progressive Bits/(Pixel*Frame) : 0.395 Stream size : 2.47 GiB (93%) Title : BDRip by Vladdrako [Beatrice-Raws] Writing library : x264 core 148 (DJATOM's build) Encoding settings : cabac=1 / ref=4 / deblock=1:1:-1 / analyse=0x3:0x113 / me=umh / subme=9 / psy=1 / fade_compensate=0.00 / psy_rd=1.00:0.00 / mixed_ref=1 / me_range=32 / chroma_me=1 / trellis=2 / 8x8dct=1 / cqm=0 / deadzone=21,11 / fast_pskip=1 / chroma_qp_offset=-2 / threads=12 / lookahead_threads=2 / sliced_threads=0 / nr=0 / decimate=1 / interlaced=0 / bluray_compat=0 / constrained_intra=0 / bframes=9 / b_pyramid=2 / b_adapt=2 / b_bias=0 / direct=1 / weightb=1 / open_gop=0 / weightp=2 / keyint=250 / keyint_min=23 / scenecut=40 / intra_refresh=0 / rc=crf / mbtree=0 / crf=15.0000 / qcomp=0.72 / qpmin=0 / qpmax=81 / qpstep=4 / ip_ratio=1.40 / pb_ratio=1.30 / aq=1:0.85 Language : Japanese Default : Yes Forced : No Color range : Limited Color primaries : BT.709 Transfer characteristics : BT.709 Matrix coefficients : BT.709 Audio ID : 2 Format : FLAC Format/Info : Free Lossless Audio Codec Codec ID : A_FLAC Duration : 17 min 59 s Bit rate mode : Variable Bit rate : 1 405 kb/s Channel(s) : 2 channels Channel positions : Front: L R Sampling rate : 48.0 kHz Frame rate : 11.719 FPS (4096 SPF) Bit depth : 24 bits Stream size : 181 MiB (7%) Title : LPCM->FLAC Writing library : libFLAC 1.3.1 (UTC 2014-11-25) Language : Japanese Default : Yes Forced : No Text #1 ID : 3 Format : ASS Codec ID : S_TEXT/ASS Codec ID/Info : Advanced Sub Station Alpha Duration : 17 min 33 s Bit rate : 214 b/s Count of elements : 340 Compression mode : Lossless Stream size : 27.6 KiB (0%) Title : Piste avec honorifiques [Houkago-Fansub] Language : French Default : Yes Forced : No Text #2 ID : 4 Format : ASS Codec ID : S_TEXT/ASS Codec ID/Info : Advanced Sub Station Alpha Duration : 17 min 33 s Bit rate : 212 b/s Count of elements : 340 Compression mode : Lossless Stream size : 27.4 KiB (0%) Title : Piste sans honorifiques [Houkago-Fansub] Language : French Default : No Forced : No Menu 00:00:00.000 : :Avant 00:01:17.077 : :Part A 00:06:50.076 : :Part B 00:09:51.757 : :Part C 00:16:39.164 : :ED

File list

  • [Neutrinome] Hinata no Aoshigure - VOSTFR [1080p BDRip FLAC]
    • Bonus
      • [Beatrice-Raws] Fumiko no Kokuhaku [1080p BDRip FLAC].mkv (261.9 MiB)
      • [Beatrice-Raws] Poretto no Isu [1080p BDRip FLAC].mkv (466.2 MiB)
      • [Beatrice-Raws] Rain Town [1080p BDRip FLAC].mkv (1.2 GiB)
    • [Neutrinome] Hinata no Aoshigure - VOSTFR [1080p BDRip FLAC].mkv (2.6 GiB)