[Prof] Berserk: The Egg of the King (1080p x265 HEVC 10bit AAC 5.1 Dual Audio)

Category:
Date:
2018-06-14 03:02 UTC
Submitter:
Seeders:
1
Information:
No information.
Leechers:
0
File size:
2.1 GiB
Completed:
365
Info hash:
39fa12635abbcd7c2031b6f8f3bb8ec6e9024765
Format : Matroska Format version : Version 4 / Version 2 File size : 2.12 GiB Duration : 1 h 16 min Overall bit rate : 3 970 kb/s Movie name : Berserk The Golden Age Arc I Encoded date : UTC 2018-06-14 01:32:30 Writing application : mkvmerge v9.6.0 ('Slave To Your Mind') 64bit Writing library : libebml v1.3.4 + libmatroska v1.4.5 Video ID : 1 Format : HEVC Format/Info : High Efficiency Video Coding Format profile : Main 10@L4@Main Codec ID : V_MPEGH/ISO/HEVC Duration : 1 h 16 min Bit rate : 1 924 kb/s Width : 1 920 pixels Height : 1 080 pixels Display aspect ratio : 16:9 Frame rate mode : Constant Frame rate : 23.976 (24000/1001) FPS Color space : YUV Chroma subsampling : 4:2:0 Bit depth : 10 bits Bits/(Pixel*Frame) : 0.039 Stream size : 1.03 GiB (48%) Writing library : x265 2.1+69-c97c64ab8b8e:[Windows][GCC 6.2.0][64 bit] 10bit Encoding settings : cpuid=1173503 / frame-threads=2 / numa-pools=4 / wpp / no-pmode / no-pme / no-psnr / no-ssim / log-level=2 / input-csp=1 / input-res=1920x1080 / interlace=0 / total-frames=110112 / level-idc=0 / high-tier=1 / uhd-bd=0 / ref=4 / no-allow-non-conformance / no-repeat-headers / annexb / no-aud / no-hrd / info / hash=0 / no-temporal-layers / open-gop / min-keyint=23 / keyint=250 / bframes=4 / b-adapt=2 / b-pyramid / bframe-bias=0 / rc-lookahead=25 / lookahead-slices=4 / scenecut=40 / no-intra-refresh / ctu=64 / min-cu-size=8 / rect / no-amp / max-tu-size=32 / tu-inter-depth=1 / tu-intra-depth=1 / limit-tu=0 / rdoq-level=2 / signhide / no-tskip / nr-intra=0 / nr-inter=0 / no-constrained-intra / strong-intra-smoothing / max-merge=3 / limit-refs=3 / limit-modes / me=3 / subme=3 / merange=57 / temporal-mvp / weightp / no-weightb / no-analyze-src-pics / deblock=0:0 / sao / no-sao-non-deblock / rd=4 / no-early-skip / rskip / no-fast-intra / no-tskip-fast / no-cu-lossless / no-b-intra / rdpenalty=0 / psy-rd=2.00 / psy-rdoq=1.00 / no-rd-refine / analysis-mode=0 / no-lossless / cbqpoffs=0 / crqpoffs=0 / rc=crf / crf=18.0 / qcomp=0.60 / qpstep=4 / stats-write=0 / stats-read=0 / ipratio=1.40 / pbratio=1.30 / aq-mode=1 / aq-strength=1.00 / cutree / zone-count=0 / no-strict-cbr / qg-size=32 / no-rc-grain / qpmax=69 / qpmin=0 / sar=0 / overscan=0 / videoformat=5 / range=0 / colorprim=2 / transfer=2 / colormatrix=2 / chromaloc=0 / display-window=0 / max-cll=0,0 / min-luma=0 / max-luma=1023 / log2-max-poc-lsb=8 / vui-timing-info / vui-hrd-info / slices=1 / opt-qp-pps / opt-ref-list-length-pps / no-multi-pass-opt-rps / scenecut-bias=0.05 Default : Yes Forced : No Audio #1 ID : 2 Format : AAC Format/Info : Advanced Audio Codec Format profile : LC Codec ID : A_AAC Duration : 1 h 16 min Bit rate : 1 029 kb/s Channel(s) : 6 channels Channel positions : Front: L C R, Side: L R, LFE Sampling rate : 48.0 kHz Frame rate : 46.875 FPS (1024 spf) Compression mode : Lossy Delay relative to video : 9 ms Stream size : 563 MiB (26%) Language : English Default : Yes Forced : No Audio #2 ID : 3 Format : AAC Format/Info : Advanced Audio Codec Format profile : LC Codec ID : A_AAC Duration : 1 h 16 min Bit rate : 1 009 kb/s Channel(s) : 6 channels Channel positions : Front: L C R, Side: L R, LFE Sampling rate : 48.0 kHz Frame rate : 46.875 FPS (1024 spf) Compression mode : Lossy Delay relative to video : 9 ms Stream size : 552 MiB (25%) Language : Japanese Default : No Forced : No Text ID : 4 Format : PGS Muxing mode : zlib Codec ID : S_HDMV/PGS Codec ID/Info : Picture based subtitle format used on BDs/HD-DVDs Duration : 1 h 10 min Bit rate : 5 945 b/s Count of elements : 1386 Stream size : 2.99 MiB (0%) Language : English Default : No Forced : No Menu 00:00:00.000 : en:Chapter 01 00:07:42.295 : en:Chapter 02 00:17:11.447 : en:Chapter 03 00:27:07.083 : en:Chapter 04 00:34:16.471 : en:Chapter 05 00:44:15.944 : en:Chapter 06 00:50:32.571 : en:Chapter 07 01:02:34.000 : en:Chapter 08 01:10:52.498 : en:Chapter 09 01:11:54.810 : en:Chapter 10

File list

Comments - 1

Compared to commie release, when they encoded, they did not include the black bars, thus saving space efficiently. i managed to remux commie subs to your release, time shift backwards by 0:00:16.20, and in aegisub to add black borders. Then again yours is dual audio, and commie isn't. So overall prof release wins, but commie wins in terms of not encoding the black borders thus saving space.