[Neutrinome] Darling in the FranXX Vol.1 - VOSTFR [1080p BDRemux]

Category:
Date:
2018-06-13 16:59 UTC
Submitter:
Seeders:
3
Information:
Leechers:
0
File size:
27.1 GiB
Completed:
53
Info hash:
02784f7fc5238f256c6d6845630f06bda0d6fd77
Darling in the FranXX BD Volume 1 ====== *** ![alt text](http://darli-fra.jp/assets/img/common/bddvd/pkg_01.jpg) *** * **Date de sortie** : 2018 * **Durée** : 3*24min * **Licencié** : Crunchyroll * **Vidéo BDMV** : XX-Project * **Sous-titre** : Crunchyroll *** **NFO** General Unique ID : 194131619524656285946832690434760830230 (0x920C63D1C38C7E6DDD26EBF17B70ED16) Format : Matroska Format version : Version 4 / Version 2 File size : 6.72 GiB Duration : 24 min 2 s Overall bit rate mode : Variable Overall bit rate : 40.0 Mb/s Encoded date : UTC 2018-05-13 12:50:50 Writing application : mkvmerge v22.0.0 ('At The End Of The World') 64-bit Writing library : libebml v1.3.5 + libmatroska v1.4.8 Video ID : 1 Format : AVC Format/Info : Advanced Video Codec Format profile : High@L4.1 Format settings, CABAC : Yes Format settings, RefFrames : 4 frames Codec ID : V_MPEG4/ISO/AVC Duration : 24 min 2 s Bit rate mode : Variable Bit rate : 37.7 Mb/s Maximum bit rate : 40.0 Mb/s Width : 1 920 pixels Height : 1 080 pixels Display aspect ratio : 16:9 Frame rate mode : Constant Frame rate : 23.976 (24000/1001) FPS Color space : YUV Chroma subsampling : 4:2:0 Bit depth : 8 bits Scan type : Progressive Bits/(Pixel*Frame) : 0.759 Stream size : 6.33 GiB (94%) Default : Yes Forced : No Audio ID : 2 Format : PCM Codec ID : A_PCM/INT/LIT Duration : 24 min 2 s Bit rate mode : Constant Bit rate : 2 304 kb/s Channel(s) : 2 channels Sampling rate : 48.0 kHz Frame rate : 32.000 FPS (1500 SPF) Bit depth : 24 bits Stream size : 396 MiB (6%) Language : Japanese Default : Yes Forced : No Text ID : 3 Format : ASS Codec ID : S_TEXT/ASS Codec ID/Info : Advanced Sub Station Alpha Duration : 23 min 51 s Bit rate : 131 b/s Count of elements : 332 Compression mode : Lossless Stream size : 23.1 KiB (0%) Title : Français Language : French Default : Yes Forced : No

File list

  • [Neutrinome] Darling in the FranXX Vol.1 [VOSTFR 1080p BDRemux]
    • EXTRA
      • Menu 01.mkv (197.9 MiB)
      • [Neutrinome] Darling in the FranXX - SP0 - VO [1080p BDRemux].mkv (6.7 GiB)
    • [Neutrinome] Darling in the FranXX - 01 - VOSTFR [1080p BDRemux].mkv (6.7 GiB)
    • [Neutrinome] Darling in the FranXX - 02 - VOSTFR [1080p BDRemux].mkv (6.7 GiB)
    • [Neutrinome] Darling in the FranXX - 03 - VOSTFR [1080p BDRemux].mkv (6.7 GiB)

Comments - 0