[Neutrinome] Evangelion 3.33 You Can (Not) Redo (2012) - VF-VOSTFR [1080p BDRip FLAC]

Category:
Date:
2018-06-12 21:13 UTC
Submitter:
Seeders:
5
Information:
Leechers:
0
File size:
8.9 GiB
Completed:
213
Info hash:
322ed71026763c59ad825034c270ca298323cda8
Evangelion 3.33 You Can (Not) Redo ====== *** ![alt text](https://fanart.tv/fanart/movies/75629/movieposter/evangelion-333-you-can-not-redo-52d70eeb92830.jpg) *** * **Date de sortie** : 2012 * **Durée** : 1h46 * **Licencié** : Dybex * **Vidéo** : THORA * **Sous-titre** : Editeur *** **NFO** General Unique ID : 20403248965894161943470532206549119039 (0xF5985D72DD042E71DD3381DE4B9B03F) Format : Matroska Format version : Version 4 / Version 2 File size : 8.91 GiB Duration : 1 h 35 min Overall bit rate mode : Variable Overall bit rate : 13.3 Mb/s Movie name : Evangelion 3.33 Encoded date : UTC 2018-02-21 13:43:09 Writing application : mkvmerge v20.0.0 ('I Am The Sun') 32-bit Writing library : libebml v1.3.5 + libmatroska v1.4.8 Cover : Yes Attachments : cover evangelion 3.33.png / 9SALERNO.TTF / FOT-MatElegProB-CP.ttf / FOT-MatisseElegantoProQ-EB.ttf / Francis.ttf / KGThisIsNotGoodbye.ttf / KozMinPr6N-Bold-En.otf / Long Island.ttf Video ID : 1 Format : AVC Format/Info : Advanced Video Codec Format profile : High 10@L4.1 Format settings, CABAC : Yes Format settings, RefFrames : 4 frames Codec ID : V_MPEG4/ISO/AVC Duration : 1 h 35 min Bit rate : 11.3 Mb/s Width : 1 920 pixels Height : 814 pixels Display aspect ratio : 2.35:1 Frame rate mode : Constant Frame rate : 24.000 FPS Color space : YUV Chroma subsampling : 4:2:0 Bit depth : 10 bits Scan type : Progressive Bits/(Pixel*Frame) : 0.300 Stream size : 7.51 GiB (84%) Writing library : x264 core Language : Japanese Default : Yes Forced : No Audio #1 ID : 2 Format : FLAC Format/Info : Free Lossless Audio Codec Codec ID : A_FLAC Duration : 1 h 35 min Bit rate mode : Variable Bit rate : 1 633 kb/s Channel(s) : 6 channels Channel positions : Front: L C R, Side: L R, LFE Sampling rate : 48.0 kHz Frame rate : 11.719 FPS (4096 SPF) Bit depth : 16 bits Stream size : 1.09 GiB (12%) Title : Japanese 5.1 Writing library : libFLAC 1.2.1 (UTC 2007-09-17) Language : Japanese Default : Yes Forced : No Audio #2 ID : 3 Format : AC-3 Format/Info : Audio Coding 3 Format settings, Endianness : Big Codec ID : A_AC3 Duration : 1 h 35 min Bit rate mode : Constant Bit rate : 448 kb/s Channel(s) : 6 channels Channel positions : Front: L C R, Side: L R, LFE Sampling rate : 48.0 kHz Frame rate : 31.250 FPS (1536 SPF) Bit depth : 16 bits Compression mode : Lossy Stream size : 307 MiB (3%) Title : French VFF (VFI) AC3 5.1 Language : French Service kind : Complete Main Default : No Forced : No Text #1 ID : 4 Format : UTF-8 Codec ID : S_TEXT/UTF8 Codec ID/Info : UTF-8 Plain Text Duration : 1 h 34 min Bit rate : 61 b/s Count of elements : 1005 Stream size : 42.6 KiB (0%) Title : French Full Language : French Default : Yes Forced : No Text #2 ID : 5 Format : UTF-8 Codec ID : S_TEXT/UTF8 Codec ID/Info : UTF-8 Plain Text Duration : 1 h 2 min Bit rate : 0 b/s Count of elements : 4 Stream size : 79.0 Bytes (0%) Title : French Forced Language : French Default : No Forced : Yes Text #3 ID : 6 Format : UTF-8 Codec ID : S_TEXT/UTF8 Codec ID/Info : UTF-8 Plain Text Duration : 1 h 34 min Bit rate : 53 b/s Count of elements : 993 Stream size : 37.1 KiB (0%) Title : English Full Language : English Default : No Forced : No Menu 00:00:00.000 : :Chapter 1 00:00:10.302 : :Chapter 2 00:00:25.317 : :Chapter 3 00:00:31.364 : :Chapter 4 00:03:20.617 : :Chapter 5 00:05:08.641 : :Chapter 6 00:09:06.587 : :Chapter 7 00:10:40.389 : :Chapter 8 00:12:53.189 : :Chapter 9 00:16:57.016 : :Chapter 10 00:20:32.231 : :Chapter 11 00:24:58.538 : :Chapter 12 00:27:02.537 : :Chapter 13 00:29:02.824 : :Chapter 14 00:32:52.428 : :Chapter 15 00:34:29.651 : :Chapter 16 00:36:31.189 : :Chapter 17 00:37:40.007 : :Chapter 18 00:41:19.643 : :Chapter 19 00:41:59.558 : :Chapter 20 00:42:35.886 : :Chapter 21 00:44:30.709 : :Chapter 22 00:45:53.334 : :Chapter 23 00:48:07.301 : :Chapter 24 00:50:20.767 : :Chapter 25 00:53:01.178 : :Chapter 26 00:55:58.104 : :Chapter 27 00:58:59.994 : :Chapter 28 01:00:47.685 : :Chapter 29 01:00:56.110 : :Chapter 30 01:04:36.581 : :Chapter 31 01:08:43.411 : :Chapter 32 01:12:00.399 : :Chapter 33 01:14:13.323 : :Chapter 34 01:17:31.647 : :Chapter 35 01:20:15.852 : :Chapter 36 01:23:36.428 : :Chapter 37 01:26:06.327 : :Chapter 38 01:30:29.048 : :Chapter 39 01:35:06.784 : :Chapter 40 01:35:37.606 : :Chapter 41

File list

  • [Neutrinome] Evangelion 3.33 You Can (Not) Redo (2012) - VF-VOSTFR [1080p BDRip FLAC].mkv (8.9 GiB)

Comments - 0