[Neutrinome] Evangelion 2.22 You Can (Not) Advance (2009) - VF-VOSTFR [1080p BDRip DTS-ES] + DDL

Category:
Date:
2018-06-12 17:05 UTC
Submitter:
Seeders:
4
Information:
Leechers:
1
File size:
11.3 GiB
Completed:
390
Info hash:
6e31e45f6a2a391bf6ded26831338438e1487cf6
Evangelion 2.22 You Can (Not) Advance ====== *** ![alt text](https://fanart.tv/fanart/movies/22843/movieposter/evangelion-20-you-can-not-advance-52d70cb39ecd0.jpg) *** * **Date de sortie** : 2009 * **Durée** : 1h48 * **Licencié** : Dybex * **Vidéo** : THORA * **Sous-titre** : Editeur * **Lien DDL** : [Uptobox](https://uptobox.com/7vy44qmd8dqv) *** **NFO** General Unique ID : 330070234874086738394668137769154951409 (0xF85137044EFCC926750FE7ECE6A8B8F1) Format : Matroska Format version : Version 4 / Version 2 File size : 11.3 GiB Duration : 1 h 52 min Overall bit rate : 14.4 Mb/s Movie name : Evangelion 2.22 Encoded date : UTC 2018-02-21 13:38:59 Writing application : mkvmerge v20.0.0 ('I Am The Sun') 32-bit Writing library : libebml v1.3.5 + libmatroska v1.4.8 Cover : Yes Attachments : cover evangelion 2.22.png / FGCCARAB_Trimmed.TTF / Francis.ttf / LIDSTFCE.TTF / Post_Note.ttf / PPETRIAL.otf / SOUTANB.TTF / SOUTANBI.TTF / 9SALERNO.TTF / 23.ttf / ArnoPro-Regular.otf / Bethhrg_.ttf / fansubBlock.ttf Video ID : 1 Format : AVC Format/Info : Advanced Video Codec Format profile : High@L4.1 Format settings, CABAC : Yes Format settings, RefFrames : 3 frames Codec ID : V_MPEG4/ISO/AVC Duration : 1 h 52 min Bit rate : 12.4 Mb/s Width : 1 920 pixels Height : 1 080 pixels Display aspect ratio : 16:9 Frame rate mode : Constant Frame rate : 23.976 (24000/1001) FPS Color space : YUV Chroma subsampling : 4:2:0 Bit depth : 8 bits Scan type : Progressive Bits/(Pixel*Frame) : 0.250 Stream size : 9.73 GiB (86%) Writing library : x264 core 0000000000000000 Language : Japanese Default : Yes Forced : No Audio #1 ID : 2 Format : DTS Format/Info : Digital Theater Systems Format profile : ES Discrete / Core Mode : 16 Format settings, Endianness : Big Codec ID : A_DTS Duration : 1 h 52 min Bit rate mode : Constant Bit rate : 1 510 kb/s Channel(s) : 7 channels / 6 channels Channel positions : Front: L C R, Side: L R, Back: C, LFE / Front: L C R, Side: L R, LFE Sampling rate : 48.0 kHz Frame rate : 93.750 FPS (512 SPF) Bit depth : 16 bits Compression mode : Lossy Stream size : 1.18 GiB (10%) Title : Japanese 5.1 Language : Japanese Default : Yes Forced : No Audio #2 ID : 3 Format : AC-3 Format/Info : Audio Coding 3 Format settings, Endianness : Big Codec ID : A_AC3 Duration : 1 h 52 min Bit rate mode : Constant Bit rate : 448 kb/s Channel(s) : 6 channels Channel positions : Front: L C R, Side: L R, LFE Sampling rate : 48.0 kHz Frame rate : 31.250 FPS (1536 SPF) Bit depth : 16 bits Compression mode : Lossy Stream size : 360 MiB (3%) Title : French (VFF) AC3 5.1 Language : French Service kind : Complete Main Default : No Forced : No Text #1 ID : 4 Format : UTF-8 Codec ID : S_TEXT/UTF8 Codec ID/Info : UTF-8 Plain Text Duration : 1 h 51 min Bit rate : 65 b/s Count of elements : 1249 Stream size : 53.0 KiB (0%) Title : French Full Language : French Default : Yes Forced : No Text #2 ID : 5 Format : UTF-8 Codec ID : S_TEXT/UTF8 Codec ID/Info : UTF-8 Plain Text Duration : 1 h 50 min Bit rate : 2 b/s Count of elements : 50 Stream size : 1.93 KiB (0%) Title : French Forced Language : French Default : No Forced : Yes Text #3 ID : 6 Format : UTF-8 Codec ID : S_TEXT/UTF8 Codec ID/Info : UTF-8 Plain Text Duration : 1 h 51 min Bit rate : 64 b/s Count of elements : 1452 Stream size : 52.7 KiB (0%) Title : English Full Language : English Default : No Forced : No Menu 00:00:00.000 : :Chapter 1 00:02:21.599 : :Chapter 2 00:05:46.095 : :Chapter 3 00:08:35.389 : :Chapter 4 00:09:33.656 : :Chapter 5 00:11:29.689 : :Chapter 6 00:14:47.219 : :Chapter 7 00:15:46.987 : :Chapter 8 00:17:06.775 : :Chapter 9 00:18:44.832 : :Chapter 10 00:21:18.318 : :Chapter 11 00:23:33.453 : :Chapter 12 00:26:34.050 : :Chapter 13 00:28:05.850 : :Chapter 14 00:31:04.154 : :Chapter 15 00:32:48.841 : :Chapter 16 00:35:09.565 : :Chapter 17 00:39:27.782 : :Chapter 18 00:41:01.792 : :Chapter 19 00:44:23.661 : :Chapter 20 00:48:57.976 : :Chapter 21 00:50:55.469 : :Chapter 22 00:53:10.896 : :Chapter 23 00:58:20.580 : :Chapter 24 01:00:28.082 : :Chapter 25 01:01:05.703 : :Chapter 26 01:06:15.888 : :Chapter 27 01:08:18.094 : :Chapter 28 01:10:42.279 : :Chapter 29 01:11:33.455 : :Chapter 30 01:14:14.783 : :Chapter 31 01:25:22.450 : :Chapter 32 01:27:39.879 : :Chapter 33 01:29:43.461 : :Chapter 34 01:34:45.721 : :Chapter 35 01:36:55.851 : :Chapter 36 01:38:50.966 : :Chapter 37 01:41:13.400 : :Chapter 38 01:45:54.222 : :Chapter 39 01:51:32.852 : :Chapter 40 01:52:07.804 : :Chapter 41

File list

  • [Neutrinome] Evangelion 2.22 You Can (Not) Advance (2009) - VF-VOSTFR [1080p BDRip DTS-ES].mkv (11.3 GiB)