[Neutrinome] Evangelion 1.11 You Are (Not) Alone (2007) - VF-VOSTFR [1080p BDRip DTS-ES] + DDL

Category:
Date:
2018-06-11 16:03 UTC
Submitter:
Seeders:
7
Information:
Leechers:
0
File size:
8.2 GiB
Completed:
441
Info hash:
4c480aca55f71797e649dba1abbf86920142fc5b
Evangelion 1.11 You Are (Not) Alone ====== *** ![alt text](https://fanart.tv/fanart/movies/15137/movieposter/evangelion-10--you-are-not-alone-52d1be3478257.jpg) *** * **Date de sortie** : 2007 * **Durée** : 1h41 * **Licencié** : Dybex * **Vidéo** : THORA * **Sous-titre** : Editeur * **Lien DDL** : [Uptobox](https://uptobox.com/wmambvqkarc3) *** **NFO** General Unique ID : 97665011525452297796637126477998377512 (0x497998D667FE23B6D33603E684A6CA28) Format : Matroska Format version : Version 4 / Version 2 File size : 8.20 GiB Duration : 1 h 43 min Overall bit rate : 11.3 Mb/s Movie name : Evangelion 1.11 Encoded date : UTC 2018-02-21 13:06:39 Writing application : mkvmerge v20.0.0 ('I Am The Sun') 32-bit Writing library : libebml v1.3.5 + libmatroska v1.4.8 Cover : Yes Attachments : cover evangelion 1.11.png / 9SALERNO.TTF / AGaramo0.otf / AGaramo6.otf / AGaramondPro-Bold.otf / AGaramondPro-Regular.otf / AGaramondPro-Semibold.otf / Bolide-Regular.ttf / comic.ttf / Francis.ttf / georgia.ttf / KIMSHAND.TTF / scott___.ttf / SOUTANB.TTF / SOUTANBI.TTF / fansubBlock.ttf Video ID : 1 Format : AVC Format/Info : Advanced Video Codec Format profile : High@L4.1 Format settings, CABAC : Yes Format settings, RefFrames : 3 frames Codec ID : V_MPEG4/ISO/AVC Duration : 1 h 40 min Bit rate : 9 656 kb/s Width : 1 920 pixels Height : 1 080 pixels Display aspect ratio : 16:9 Frame rate mode : Constant Frame rate : 23.976 (24000/1001) FPS Color space : YUV Chroma subsampling : 4:2:0 Bit depth : 8 bits Scan type : Progressive Bits/(Pixel*Frame) : 0.194 Stream size : 6.81 GiB (83%) Writing library : x264 core 0000000000000001c Language : Japanese Default : Yes Forced : No Audio #1 ID : 2 Format : DTS Format/Info : Digital Theater Systems Format profile : ES Discrete / Core Mode : 16 Format settings, Endianness : Big Codec ID : A_DTS Duration : 1 h 40 min Bit rate mode : Constant Bit rate : 1 509 kb/s Channel(s) : 7 channels / 6 channels Channel positions : Front: L C R, Side: L R, Back: C, LFE / Front: L C R, Side: L R, LFE Sampling rate : 48.0 kHz Frame rate : 93.750 FPS (512 SPF) Bit depth : 24 bits Compression mode : Lossy Stream size : 1.06 GiB (13%) Title : Japanese 5.1 Language : Japanese Default : Yes Forced : No Audio #2 ID : 3 Format : AC-3 Format/Info : Audio Coding 3 Format settings, Endianness : Big Codec ID : A_AC3 Duration : 1 h 43 min Bit rate mode : Constant Bit rate : 448 kb/s Channel(s) : 6 channels Channel positions : Front: L C R, Side: L R, LFE Sampling rate : 48.0 kHz Frame rate : 31.250 FPS (1536 SPF) Bit depth : 16 bits Compression mode : Lossy Stream size : 332 MiB (4%) Title : French VFF (VFI) AC3 5.1 Language : French Service kind : Complete Main Default : No Forced : No Text #1 ID : 4 Format : UTF-8 Codec ID : S_TEXT/UTF8 Codec ID/Info : UTF-8 Plain Text Duration : 1 h 40 min Bit rate : 55 b/s Count of elements : 1157 Stream size : 41.1 KiB (0%) Title : French Full Language : French Default : Yes Forced : No Text #2 ID : 5 Format : UTF-8 Codec ID : S_TEXT/UTF8 Codec ID/Info : UTF-8 Plain Text Duration : 1 h 39 min Bit rate : 3 b/s Count of elements : 104 Stream size : 2.90 KiB (0%) Title : French Forced Language : French Default : No Forced : Yes Text #3 ID : 6 Format : UTF-8 Codec ID : S_TEXT/UTF8 Codec ID/Info : UTF-8 Plain Text Duration : 1 h 39 min Bit rate : 64 b/s Count of elements : 1355 Stream size : 47.1 KiB (0%) Title : English Full Language : English Default : No Forced : No Menu 00:00:00.000 : :Chapter 1 00:02:06.000 : :Chapter 2 00:10:47.521 : :Chapter 3 00:13:29.975 : :Chapter 4 00:14:27.783 : :Chapter 5 00:17:11.905 : :Chapter 6 00:19:14.027 : :Chapter 7 00:27:34.277 : :Chapter 8 00:29:43.239 : :Chapter 9 00:30:57.147 : :Chapter 10 00:35:54.444 : :Chapter 11 00:38:00.903 : :Chapter 12 00:41:24.940 : :Chapter 13 00:42:41.559 : :Chapter 14 00:44:35.714 : :Chapter 15 00:48:57.392 : :Chapter 16 00:52:15.173 : :Chapter 17 00:53:11.646 : :Chapter 18 00:55:19.190 : :Chapter 19 00:56:38.979 : :Chapter 20 01:01:43.449 : :Chapter 21 01:03:15.416 : :Chapter 22 01:07:16.073 : :Chapter 23 01:08:54.171 : :Chapter 24 01:10:48.410 : :Chapter 25 01:14:42.895 : :Chapter 26 01:18:55.897 : :Chapter 27 01:21:17.873 : :Chapter 28 01:23:23.873 : :Chapter 29 01:28:11.286 : :Chapter 30 01:33:23.931 : :Chapter 31 01:35:23.801 : :Chapter 32 01:40:24.018 : :Chapter 33 01:40:57.760 : :Chapter 34

File list

  • [Neutrinome] Evangelion 1.11 You Are (Not) Alone (2007) - VF-VOSTFR [1080p BDRip DTS-ES].mkv (8.2 GiB)