[Neutrinome] The End of Evangelion (1997) - VOSTFR [1080p BDRip AAC 5.1] + DDL

Category:
Date:
2018-06-10 08:29 UTC
Submitter:
Seeders:
3
Information:
Leechers:
0
File size:
8.7 GiB
Completed:
476
Info hash:
d31a1cd91265ebfae7c61aab5edb7163fc9fee3a
The End of Evangelion ====== *** ![alt text](https://media.senscritique.com/media/000007667904/source_big/The_End_of_Evangelion.jpg) *** * **Date de sortie** : 1997 * **Durée** : 1h37 * **Licencié** : Dybex * **Vidéo** : Sephirotic * **Sous-titre** : Editeur * **Lien DDL** : [Uptobox](https://uptobox.com/xpenqpkjvxbp) *** **NFO** General Unique ID : 229851287824112525080311171577950501567 (0xACEBBF6FAA93AB8D45380901954FFABF) Format : Matroska Format version : Version 4 / Version 2 File size : 8.71 GiB Duration : 1 h 26 min Overall bit rate : 14.3 Mb/s Movie name : The End of Evangelion Encoded date : UTC 2018-01-30 14:30:17 Writing application : mkvmerge v20.0.0 ('I Am The Sun') 32-bit Writing library : libebml v1.3.5 + libmatroska v1.4.8 Attachments : KozMinPro-Bold.otf / KozMinPro-Medium.otf / CALIBRI.TTF / CALIBRIB.TTF / CALIBRII.TTF / CALIBRIZ.TTF Video ID : 1 Format : AVC Format/Info : Advanced Video Codec Format profile : High@L5 Format settings, CABAC : Yes Format settings, RefFrames : 12 frames Codec ID : V_MPEG4/ISO/AVC Duration : 1 h 26 min Bit rate : 13.7 Mb/s Nominal bit rate : 12.7 Mb/s Width : 1 920 pixels Height : 1 080 pixels Display aspect ratio : 16:9 Frame rate mode : Constant Frame rate : 23.976 (24000/1001) FPS Color space : YUV Chroma subsampling : 4:2:0 Bit depth : 8 bits Scan type : Progressive Bits/(Pixel*Frame) : 0.275 Stream size : 8.30 GiB (95%) Writing library : x264 core 148 r2638 7599210 Encoding settings : cabac=1 / ref=12 / deblock=1:-1:-1 / analyse=0x3:0x133 / me=umh / subme=11 / psy=1 / psy_rd=1.00:0.00 / mixed_ref=1 / me_range=32 / chroma_me=1 / trellis=2 / 8x8dct=1 / cqm=0 / deadzone=21,11 / fast_pskip=0 / chroma_qp_offset=-2 / threads=4 / lookahead_threads=1 / sliced_threads=0 / nr=0 / decimate=0 / interlaced=0 / bluray_compat=0 / stitchable=1 / constrained_intra=0 / bframes=6 / b_pyramid=2 / b_adapt=2 / b_bias=0 / direct=3 / weightb=1 / open_gop=0 / weightp=2 / keyint=115 / keyint_min=11 / scenecut=80 / intra_refresh=0 / rc=2pass / mbtree=0 / bitrate=12687 / ratetol=1.0 / qcomp=0.60 / qpmin=0 / qpmax=69 / qpstep=4 / cplxblur=20.0 / qblur=0.5 / ip_ratio=1.30 / pb_ratio=1.30 / aq=1:0.80 / zones=0,1875,q=26/60350,67198,q=25 Language : English Default : Yes Forced : No Color range : Limited Matrix coefficients : BT.709 Audio #1 ID : 2 Format : AAC Format/Info : Advanced Audio Codec Format profile : LC Codec ID : A_AAC Duration : 1 h 26 min Bit rate : 478 kb/s Channel(s) : 6 channels Channel positions : Front: L C R, Side: L R, LFE Sampling rate : 48.0 kHz Frame rate : 46.875 FPS (1024 SPF) Compression mode : Lossy Delay relative to video : 20 ms Stream size : 297 MiB (3%) Title : Japanese 5.1 QAAC q0.91 Language : Japanese Default : Yes Forced : No Audio #2 ID : 3 Format : AAC Format/Info : Advanced Audio Codec Format profile : LC Codec ID : A_AAC Duration : 1 h 26 min Bit rate : 144 kb/s Channel(s) : 2 channels Channel positions : Front: L R Sampling rate : 48.0 kHz Frame rate : 46.875 FPS (1024 SPF) Compression mode : Lossy Delay relative to video : 20 ms Stream size : 88.3 MiB (1%) Title : Japanese 2.0 Legacy Stereo Language : Japanese Default : No Forced : No Text #1 ID : 4 Format : ASS Codec ID : S_TEXT/ASS Codec ID/Info : Advanced Sub Station Alpha Duration : 1 h 24 min Bit rate : 71 b/s Count of elements : 751 Compression mode : Lossless Stream size : 44.7 KiB (0%) Title : Français Language : French Default : Yes Forced : No Text #2 ID : 5 Format : PGS Muxing mode : zlib Codec ID : S_HDMV/PGS Codec ID/Info : Picture based subtitle format used on BDs/HD-DVDs Duration : 1 h 25 min Bit rate : 95.3 kb/s Count of elements : 4371 Stream size : 58.2 MiB (1%) Title : Japonais Language : Japanese Default : No Forced : No

File list

  • [Neutrinome] The End of Evangelion - VOSTFR [1080p BDRip AAC 5.1].mkv (8.7 GiB)
Thanks for sharing and the DDL link!