[Neutrinome] Wolf Children (Ookami Kodomo no Ame to Yuki) - VOSTFR [1080p BDRip FLAC] + DDL

Category:
Date:
2018-06-08 18:38 UTC
Submitter:
Seeders:
1
Information:
Leechers:
0
File size:
8.4 GiB
Completed:
111
Info hash:
0caa61e94b8790b790e2db539aa5038d377163a2
Les Enfants Loups / Wolf Children / Ookami Kodomo no Ame to Yuki ====== *** ![alt text](https://images-na.ssl-images-amazon.com/images/I/81Q6FSGbzDL.jpg) *** * **Date de sortie** : 2012 * **Durée** : 1h57 * **Licencié** : Kazé / ADN * **Vidéo** : Yousei-raws * **Sous-titre** : Editeur * **Lien DDL** : [Uptobox](https://uptobox.com/3sa2idyv0nkp) *** **NFO** General Unique ID : 43322253340399338303317534748675885147 (0x20978FFFC7F8F959305ADC164847485B) Format : Matroska Format version : Version 4 / Version 2 File size : 8.41 GiB Duration : 1 h 57 min Overall bit rate mode : Variable Overall bit rate : 10.3 Mb/s Encoded date : UTC 2018-04-22 18:17:39 Writing application : mkvmerge v22.0.0 ('At The End Of The World') 64-bit Writing library : libebml v1.3.5 + libmatroska v1.4.8 Attachments : FRADMCN.TTF / FRAMDCN.TTF / LT.ttf / LTFinnegan_MediumItalic.ttf / mvboli.ttf / ObelixPro-cyr.ttf / Passing Notes.ttf / Arial Rounded MT.ttf / BRUSHED.TTF / ComiXXX.ttf / CREABBRG.ttf / edosz.ttf / Chiclest_0.otf / Chiclest_1.otf / Dimbo Regular.ttf / Chiclest.otf / CLASSHYOUKA_0.TTF / QUATTROCENTOSANS-BOLD.TTF / QUATTROCENTOSANS-BOLDITALIC.TTF / ZHUNYUAN.TTF Video ID : 1 Format : AVC Format/Info : Advanced Video Codec Format profile : High 10@L4 Format settings, CABAC : Yes Format settings, RefFrames : 4 frames Codec ID : V_MPEG4/ISO/AVC Duration : 1 h 57 min Bit rate : 7 043 kb/s Width : 1 920 pixels Height : 1 080 pixels Display aspect ratio : 16:9 Frame rate mode : Constant Frame rate : 23.976 (24000/1001) FPS Color space : YUV Chroma subsampling : 4:2:0 Bit depth : 10 bits Scan type : Progressive Bits/(Pixel*Frame) : 0.142 Stream size : 5.76 GiB (69%) Title : [Yousei-Raws] Writing library : x264 core 129 r2245 bc13772 Encoding settings : cabac=1 / ref=4 / deblock=1:-2:-2 / analyse=0x3:0x133 / me=umh / subme=9 / psy=1 / psy_rd=0.90:0.05 / mixed_ref=1 / me_range=32 / chroma_me=1 / trellis=2 / 8x8dct=1 / cqm=0 / deadzone=21,11 / fast_pskip=0 / chroma_qp_offset=-3 / threads=6 / lookahead_threads=4 / sliced_threads=0 / nr=0 / decimate=0 / interlaced=0 / bluray_compat=0 / constrained_intra=0 / bframes=12 / b_pyramid=2 / b_adapt=2 / b_bias=0 / direct=3 / weightb=1 / open_gop=0 / weightp=2 / keyint=250 / keyint_min=23 / scenecut=40 / intra_refresh=0 / rc=crf / mbtree=0 / crf=16.5 / qcomp=0.80 / qpmin=0 / qpmax=81 / qpstep=4 / ip_ratio=1.40 / pb_ratio=1.30 / aq=1:0.70 Language : Japanese Default : Yes Forced : No Color range : Limited Matrix coefficients : BT.709 Audio ID : 2 Format : FLAC Format/Info : Free Lossless Audio Codec Codec ID : A_FLAC Duration : 1 h 57 min Bit rate mode : Variable Bit rate : 3 225 kb/s Channel(s) : 6 channels Channel positions : Front: L C R, Side: L R, LFE Sampling rate : 48.0 kHz Frame rate : 11.719 FPS (4096 SPF) Bit depth : 24 bits Stream size : 2.64 GiB (31%) Title : FLAC 5.1 [Yousei] Writing library : libFLAC 1.2.1 (UTC 2007-09-17) Language : Japanese Default : Yes Forced : No

File list

  • [Neutrinome] Wolf Children [VOSTFR 1080p BDRip FLAC].mkv (8.4 GiB)
Thanks for sharing and the DDL link!